2 Broke Girls / EN

Moderátor: KlopuX

Odpovědět
slepica
Pozorovatel
Pozorovatel
Příspěvky: 25
Registrován: 30 říj 2011 16:35

2 Broke Girls / EN

Příspěvek od slepica » 02 lis 2011 14:47

2 Broke Girls / HDTV / EN
Obrázek

Kód: Vybrat vše

http://www.csfd.cz/film/297538-2-broke-girls/
http://www.imdb.com/title/tt1845307/

Kód: Vybrat vše

Source...........: 1080i HDTV 
Video Format.....: XviD 
Video Resolution.: 624x352 
Video Bitrate....: 956 kbps 
Video Framerate..: 23.976 
Audio Format.....: MP3 VBR 
Audio Bitrate....: 162 kbps average 
Audio Sample Rate: 48 KHz 
Length...........: 21:35.962 
Size.............: 174MB
Obrázek

Kód: Vybrat vše

http://www.wupload.com/file/194820488/2.Broke.Girls.S01E01.Pilot.HDTV.XviD-FQM.avi
http://www.wupload.com/file/1278786706/2.Broke.Girls.S01E02.HDTV.XviD-FQM.avi
http://www.wupload.com/file/1278786701/2.Broke.Girls.S01E03.HDTV.XviD-ASAP.avi
http://www.wupload.com/file/1278786696/2.Broke.Girls.S01E04.And.the.Rich.People.Problems.HDTV.XviD-FQM.avi
http://www.wupload.com/file/1278786691/2.Broke.Girls.S01E05.And.the.90s.Horse.Party.HDTV.XviD-FQM.avi
http://www.wupload.com/file/1278786686/2.Broke.Girls.S01E06.HDTV.XviD-ASAP.avi
http://www.wupload.com/file/1847420141/2.Broke.Girls.S01E07.HDTV.XviD-ASAP.avi
Obrázek

Kód: Vybrat vše

http://www.filesonic.com/file/2892568405/2.Broke.Girls.S01E07.HDTV.XviD-ASAP.avi
warup
Navigátor
Navigátor
Příspěvky: 1314
Registrován: 05 zář 2014 21:01
Dal poděkování: 2 poděkování
Dostal poděkování: 1 poděkování

2 Broke Girls / EN

Příspěvek od warup » 02 čer 2017 08:01

2-Broke-Girls-S03E13---cz-titulky

Obrázek

info

Kód: Vybrat vše

http://www.csfd.cz/film/297538-2-ocky/prehled/
Příběh se odehrává v New Yorku a zaměřuje se na dvě servírky. Max pochází z chudé rodiny. Caroline se sice narodila do bohatství, ale opustilo ji štěstí a tak se musí živit jako servírka v brooklynské restauraci. Tyhle dvě se rychle skamarádí a vysní si společnou kavárničku. Jediné, co jim na cestě za jejich snem brání je počáteční kapitál 250 000 dolarů.(lost815)
kvalita
General
Complete name : D:\2-Broke-Girls-S03E13---cz-titulky.mp4
Format : MPEG-4
Format profile : Base Media
Codec ID : isom (isom/iso2/avc1/mp41)
File size : 105 MiB
Duration : 21 min 44 s
Overall bit rate mode : Variable
Overall bit rate : 676 kb/s
Writing application : Lavf53.21.1

Video
ID : 1
Format : AVC
Format/Info : Advanced Video Codec
Format profile : Main@L3
Format settings, CABAC : Yes
Format settings, ReFrames : 3 frames
Codec ID : avc1
Codec ID/Info : Advanced Video Coding
Duration : 21 min 44 s
Source duration : 15 s 562 ms
Bit rate : 470 kb/s
Width : 640 pixels
Height : 360 pixels
Display aspect ratio : 16:9
Frame rate mode : Constant
Frame rate : 23.976 FPS
Color space : YUV
Chroma subsampling : 4:2:0
Bit depth : 8 bits
Scan type : Progressive
Bits/(Pixel*Frame) : 0.085
Stream size : 73.1 MiB (70%)
Source stream size : 73.1 MiB (70%)
Writing library : x264 core 123 r2189 35cf912
Encoding settings : cabac=1 / ref=3 / deblock=1:0:0 / analyse=0x1:0x111 / me=hex / subme=7 / psy=1 / psy_rd=1.00:0.00 / mixed_ref=0 / me_range=16 / chroma_me=1 / trellis=1 / 8x8dct=0 / cqm=0 / deadzone=21,11 / fast_pskip=1 / chroma_qp_offset=-2 / threads=1 / sliced_threads=0 / nr=0 / decimate=1 / interlaced=0 / bluray_compat=0 / constrained_intra=0 / bframes=3 / b_pyramid=0 / b_adapt=1 / b_bias=0 / direct=1 / weightb=0 / open_gop=1 / weightp=2 / keyint=250 / keyint_min=23 / scenecut=40 / intra_refresh=0 / rc_lookahead=40 / rc=crf / mbtree=1 / crf=23.0 / qcomp=0.60 / qpmin=0 / qpmax=69 / qpstep=4 / ip_ratio=1.25 / aq=1:1.00
mdhd_Duration : 1304052

Audio
ID : 2
Format : AAC
Format/Info : Advanced Audio Codec
Format profile : LC
Codec ID : 40
Duration : 21 min 43 s
Bit rate mode : Variable
Bit rate : 200 kb/s
Channel(s) : 2 channels
Channel positions : Front: L R
Sampling rate : 44.1 kHz
Frame rate : 43.066 FPS (1024 spf)
Compression mode : Lossy
Stream size : 31.1 MiB (30%)
Default : Yes
Alternate group : 1
download

Kód: Vybrat vše

http://xshare.cz/5u8/2-Broke-Girls-S03E13---cz-titulky.mp4
Obrázek

Kód: Vybrat vše

http://datoid.cz/?p=143827  
warup
Navigátor
Navigátor
Příspěvky: 1314
Registrován: 05 zář 2014 21:01
Dal poděkování: 2 poděkování
Dostal poděkování: 1 poděkování

2 Broke Girls / EN

Příspěvek od warup » 02 čer 2017 09:07

2-Broke-Girls-S03E15---cz-titulky
Obrázek

info

Kód: Vybrat vše

http://www.csfd.cz/film/297538-2-ocky/prehled/
Příběh se odehrává v New Yorku a zaměřuje se na dvě servírky. Max pochází z chudé rodiny. Caroline se sice narodila do bohatství, ale opustilo ji štěstí a tak se musí živit jako servírka v brooklynské restauraci. Tyhle dvě se rychle skamarádí a vysní si společnou kavárničku. Jediné, co jim na cestě za jejich snem brání je počáteční kapitál 250 000 dolarů.(lost815)
kvalita
General
Complete name : D:\2-Broke-Girls-S03E15---cz-titulky.mp4
Format : MPEG-4
Format profile : Base Media
Codec ID : isom (isom/iso2/avc1/mp41)
File size : 95.2 MiB
Duration : 21 min 45 s
Overall bit rate mode : Variable
Overall bit rate : 612 kb/s
Writing application : Lavf53.21.1

Video
ID : 1
Format : AVC
Format/Info : Advanced Video Codec
Format profile : Main@L3
Format settings, CABAC : Yes
Format settings, ReFrames : 3 frames
Codec ID : avc1
Codec ID/Info : Advanced Video Coding
Duration : 21 min 45 s
Source duration : 16 s 563 ms
Bit rate : 406 kb/s
Width : 640 pixels
Height : 360 pixels
Display aspect ratio : 16:9
Frame rate mode : Constant
Frame rate : 23.976 FPS
Color space : YUV
Chroma subsampling : 4:2:0
Bit depth : 8 bits
Scan type : Progressive
Bits/(Pixel*Frame) : 0.074
Stream size : 63.2 MiB (66%)
Source stream size : 63.2 MiB (66%)
Writing library : x264 core 123 r2189 35cf912
Encoding settings : cabac=1 / ref=3 / deblock=1:0:0 / analyse=0x1:0x111 / me=hex / subme=7 / psy=1 / psy_rd=1.00:0.00 / mixed_ref=0 / me_range=16 / chroma_me=1 / trellis=1 / 8x8dct=0 / cqm=0 / deadzone=21,11 / fast_pskip=1 / chroma_qp_offset=-2 / threads=1 / sliced_threads=0 / nr=0 / decimate=1 / interlaced=0 / bluray_compat=0 / constrained_intra=0 / bframes=3 / b_pyramid=0 / b_adapt=1 / b_bias=0 / direct=1 / weightb=0 / open_gop=1 / weightp=2 / keyint=250 / keyint_min=23 / scenecut=40 / intra_refresh=0 / rc_lookahead=40 / rc=crf / mbtree=1 / crf=23.0 / qcomp=0.60 / qpmin=0 / qpmax=69 / qpstep=4 / ip_ratio=1.25 / aq=1:1.00
mdhd_Duration : 1305053

Audio
ID : 2
Format : AAC
Format/Info : Advanced Audio Codec
Format profile : LC
Codec ID : 40
Duration : 21 min 45 s
Bit rate mode : Variable
Bit rate : 200 kb/s
Channel(s) : 2 channels
Channel positions : Front: L R
Sampling rate : 44.1 kHz
Frame rate : 43.066 FPS (1024 spf)
Compression mode : Lossy
Stream size : 31.1 MiB (33%)
Default : Yes
Alternate group : 1

download

Kód: Vybrat vše

http://xshare.cz/5ua/2-Broke-Girls-S03E15---cz-titulky.mp4
Obrázek

Kód: Vybrat vše

http://datoid.cz/?p=143827  
Odpovědět

Zpět na „Seriály“