Brickleberry (2012)

Moderátor: KlopuX

Odpovědět
Uživatelský avatar
Hogwarts
Logistik
Logistik
Příspěvky: 143
Registrován: 09 čer 2008 16:23
Dostal poděkování: 13 poděkování
Kontaktovat uživatele:

Brickleberry (2012)

Příspěvek od Hogwarts » 26 zář 2012 09:10

Brickleberry / S01 / HDTV
Obrázek

Obrázek

Kód: Vybrat vše

http://www.csfd.cz/film/325684
http://www.comedycentral.com/shows/brickleberry
Obrázek
Obrázek

Kód: Vybrat vše

http://download.hellshare.com/brickleberry-s01e01-hdtv-x264-lol-mp4/9119789/
Obrázek

Kód: Vybrat vše

http://www.fastshare.cz/1660567/brickleberry.s01e01.hdtv.x264-lol.mp4
Obrázek

Kód: Vybrat vše

http://czshare.com/3479018/Brickleberry.S01E01.HDTV.x264-LOL.mp4
warup
Navigátor
Navigátor
Příspěvky: 1314
Registrován: 05 zář 2014 21:01
Dal poděkování: 2 poděkování
Dostal poděkování: 1 poděkování

Brickleberry (2012)

Příspěvek od warup » 02 čer 2017 07:49

brickleberry.s02e07.hdtv.x264-2hd
Obrázek

info

Kód: Vybrat vše

http://www.csfd.cz/film/325684-brickleberry/prehled/
Nový seriál od Comedy Central, který se s cenzurou rozhodně nemaže!
Steve je tak trošku prosťoučký ranger z národního parku Brickleberry, který se opakovaně stává rangerem měsíce jenom proto, že nemá soupeře. To se ovšem změní s příchodem Ethel - nové rangerky, která je ve všech ohledech úplně jiná, než Steve. Vedle soupeření Steva a Ethel v seriálu uvidíme Denzela - typicky "černého" parťáka Steva, Woodyho - vedoucího parku, pro kterého je návštěvnost parku to nejdůležitější, jeho mluvícího medvěda Malloye a "mužatku" Connie, která se zamiluje do nově příchozí Ethel. No uznejte sami, dá se s takovou partou vůbec nudit?(kery-)
kvalita

Kód: Vybrat vše

General
Complete name               : D:\brickleberry.s02e07.hdtv.x264-2hd.mp4
Format                      : MPEG-4
Format profile              : Base Media
Codec ID                    : isom (isom/iso2/avc1/mp41)
File size                   : 68.4 MiB
Duration                    : 21 min 10 s
Overall bit rate mode       : Variable
Overall bit rate            : 452 kb/s
Encoded date                : UTC 2013-10-16 03:06:04
Tagged date                 : UTC 2013-10-16 03:06:04
Writing application         : Lavf53.21.1

Video
ID                          : 1
Format                      : AVC
Format/Info                 : Advanced Video Codec
Format profile              : Main@L3
Format settings, CABAC      : Yes
Format settings, ReFrames   : 3 frames
Codec ID                    : avc1
Codec ID/Info               : Advanced Video Coding
Duration                    : 21 min 10 s
Bit rate                    : 246 kb/s
Width                       : 640 pixels
Height                      : 360 pixels
Display aspect ratio        : 16:9
Frame rate mode             : Constant
Frame rate                  : 23.976 (24000/1001) FPS
Color space                 : YUV
Chroma subsampling          : 4:2:0
Bit depth                   : 8 bits
Scan type                   : Progressive
Bits/(Pixel*Frame)          : 0.045
Stream size                 : 37.3 MiB (55%)
Writing library             : x264 core 123 r2189 35cf912
Encoding settings           : cabac=1 / ref=3 / deblock=1:0:0 / analyse=0x1:0x111 / me=hex / subme=7 / psy=1 / psy_rd=1.00:0.00 / mixed_ref=0 / me_range=16 / chroma_me=1 / trellis=1 / 8x8dct=0 / cqm=0 / deadzone=21,11 / fast_pskip=1 / chroma_qp_offset=-2 / threads=1 / sliced_threads=0 / nr=0 / decimate=1 / interlaced=0 / bluray_compat=0 / constrained_intra=0 / bframes=3 / b_pyramid=0 / b_adapt=1 / b_bias=0 / direct=1 / weightb=0 / open_gop=1 / weightp=2 / keyint=250 / keyint_min=23 / scenecut=40 / intra_refresh=0 / rc_lookahead=40 / rc=crf / mbtree=1 / crf=23.0 / qcomp=0.60 / qpmin=0 / qpmax=69 / qpstep=4 / ip_ratio=1.25 / aq=1:1.00
Encoded date                : UTC 2013-10-16 03:06:04
Tagged date                 : UTC 2013-10-16 03:06:04

Audio
ID                          : 2
Format                      : AAC
Format/Info                 : Advanced Audio Codec
Format profile              : LC
Codec ID                    : 40
Duration                    : 21 min 10 s
Bit rate mode               : Variable
Bit rate                    : 200 kb/s
Channel(s)                  : 2 channels
Channel positions           : Front: L R
Sampling rate               : 44.1 kHz
Frame rate                  : 43.066 FPS (1024 spf)
Compression mode            : Lossy
Stream size                 : 30.3 MiB (44%)
Default                     : Yes
Alternate group             : 1
Encoded date                : UTC 2013-10-16 03:06:04
Tagged date                 : UTC 2013-10-16 03:06:04
download

Kód: Vybrat vše

http://xshare.cz/5uS/brickleberry.s02e07.hdtv.x264-2hd.mp4
Obrázek

Kód: Vybrat vše

http://datoid.cz/?p=143827  
warup
Navigátor
Navigátor
Příspěvky: 1314
Registrován: 05 zář 2014 21:01
Dal poděkování: 2 poděkování
Dostal poděkování: 1 poděkování

Brickleberry (2012)

Příspěvek od warup » 02 čer 2017 10:09

Brickleberry.S02E04.HDTV.x264-EVOLVE
Obrázek

info

Kód: Vybrat vše

http://www.csfd.cz/film/325684-brickleberry/prehled/
Nový seriál od Comedy Central, který se s cenzurou rozhodně nemaže!
Steve je tak trošku prosťoučký ranger z národního parku Brickleberry, který se opakovaně stává rangerem měsíce jenom proto, že nemá soupeře. To se ovšem změní s příchodem Ethel - nové rangerky, která je ve všech ohledech úplně jiná, než Steve. Vedle soupeření Steva a Ethel v seriálu uvidíme Denzela - typicky "černého" parťáka Steva, Woodyho - vedoucího parku, pro kterého je návštěvnost parku to nejdůležitější, jeho mluvícího medvěda Malloye a "mužatku" Connie, která se zamiluje do nově příchozí Ethel. No uznejte sami, dá se s takovou partou vůbec nudit?(kery-)
kvalita
General
Complete name : D:\Brickleberry.S02E04.HDTV.x264-EVOLVE.mp4
Format : MPEG-4
Format profile : Base Media
Codec ID : isom (isom/iso2/avc1/mp41)
File size : 75.5 MiB
Duration : 21 min 11 s
Overall bit rate mode : Variable
Overall bit rate : 498 kb/s
Encoded date : UTC 2013-09-25 03:00:59
Tagged date : UTC 2013-09-25 03:00:59
Writing application : Lavf53.21.1

Video
ID : 1
Format : AVC
Format/Info : Advanced Video Codec
Format profile : Main@L3
Format settings, CABAC : Yes
Format settings, ReFrames : 3 frames
Codec ID : avc1
Codec ID/Info : Advanced Video Coding
Duration : 21 min 11 s
Bit rate : 293 kb/s
Width : 640 pixels
Height : 360 pixels
Display aspect ratio : 16:9
Frame rate mode : Constant
Frame rate : 23.976 (24000/1001) FPS
Color space : YUV
Chroma subsampling : 4:2:0
Bit depth : 8 bits
Scan type : Progressive
Bits/(Pixel*Frame) : 0.053
Stream size : 44.4 MiB (59%)
Writing library : x264 core 123 r2189 35cf912
Encoding settings : cabac=1 / ref=3 / deblock=1:0:0 / analyse=0x1:0x111 / me=hex / subme=7 / psy=1 / psy_rd=1.00:0.00 / mixed_ref=0 / me_range=16 / chroma_me=1 / trellis=1 / 8x8dct=0 / cqm=0 / deadzone=21,11 / fast_pskip=1 / chroma_qp_offset=-2 / threads=1 / sliced_threads=0 / nr=0 / decimate=1 / interlaced=0 / bluray_compat=0 / constrained_intra=0 / bframes=3 / b_pyramid=0 / b_adapt=1 / b_bias=0 / direct=1 / weightb=0 / open_gop=1 / weightp=2 / keyint=250 / keyint_min=23 / scenecut=40 / intra_refresh=0 / rc_lookahead=40 / rc=crf / mbtree=1 / crf=23.0 / qcomp=0.60 / qpmin=0 / qpmax=69 / qpstep=4 / ip_ratio=1.25 / aq=1:1.00
Encoded date : UTC 2013-09-25 03:00:59
Tagged date : UTC 2013-09-25 03:00:59

Audio
ID : 2
Format : AAC
Format/Info : Advanced Audio Codec
Format profile : LC
Codec ID : 40
Duration : 21 min 11 s
Bit rate mode : Variable
Bit rate : 200 kb/s
Channel(s) : 2 channels
Channel positions : Front: L R
Sampling rate : 44.1 kHz
Frame rate : 43.066 FPS (1024 spf)
Compression mode : Lossy
Stream size : 30.3 MiB (40%)
Default : Yes
Alternate group : 1
Encoded date : UTC 2013-09-25 03:00:59
Tagged date : UTC 2013-09-25 03:00:59
download

Kód: Vybrat vše

http://xshare.cz/2Tx/Brickleberry.S02E04.HDTV.x264-EVOLVE.mp4
Obrázek

Kód: Vybrat vše

http://datoid.cz/?p=143827  
warup
Navigátor
Navigátor
Příspěvky: 1314
Registrován: 05 zář 2014 21:01
Dal poděkování: 2 poděkování
Dostal poděkování: 1 poděkování

Brickleberry (2012)

Příspěvek od warup » 02 čer 2017 10:18

Brickleberry.S02E11.HDTV.x264-2HD
Obrázek

info

Kód: Vybrat vše

http://www.csfd.cz/film/325684-brickleberry/prehled/
Nový seriál od Comedy Central, který se s cenzurou rozhodně nemaže!
Steve je tak trošku prosťoučký ranger z národního parku Brickleberry, který se opakovaně stává rangerem měsíce jenom proto, že nemá soupeře. To se ovšem změní s příchodem Ethel - nové rangerky, která je ve všech ohledech úplně jiná, než Steve. Vedle soupeření Steva a Ethel v seriálu uvidíme Denzela - typicky "černého" parťáka Steva, Woodyho - vedoucího parku, pro kterého je návštěvnost parku to nejdůležitější, jeho mluvícího medvěda Malloye a "mužatku" Connie, která se zamiluje do nově příchozí Ethel. No uznejte sami, dá se s takovou partou vůbec nudit?(kery-)
kvalita
General
Complete name : D:\Brickleberry.S02E11.HDTV.x264-2HD.mp4
Format : MPEG-4
Format profile : Base Media
Codec ID : isom (isom/iso2/avc1/mp41)
File size : 65.9 MiB
Duration : 20 min 40 s
Overall bit rate mode : Variable
Overall bit rate : 445 kb/s
Encoded date : UTC 2013-11-13 04:05:57
Tagged date : UTC 2013-11-13 04:05:57
Writing application : Lavf53.21.1

Video
ID : 1
Format : AVC
Format/Info : Advanced Video Codec
Format profile : Main@L3
Format settings, CABAC : Yes
Format settings, ReFrames : 3 frames
Codec ID : avc1
Codec ID/Info : Advanced Video Coding
Duration : 20 min 40 s
Bit rate : 240 kb/s
Width : 640 pixels
Height : 360 pixels
Display aspect ratio : 16:9
Frame rate mode : Constant
Frame rate : 23.976 (24000/1001) FPS
Color space : YUV
Chroma subsampling : 4:2:0
Bit depth : 8 bits
Scan type : Progressive
Bits/(Pixel*Frame) : 0.043
Stream size : 35.5 MiB (54%)
Writing library : x264 core 123 r2189 35cf912
Encoding settings : cabac=1 / ref=3 / deblock=1:0:0 / analyse=0x1:0x111 / me=hex / subme=7 / psy=1 / psy_rd=1.00:0.00 / mixed_ref=0 / me_range=16 / chroma_me=1 / trellis=1 / 8x8dct=0 / cqm=0 / deadzone=21,11 / fast_pskip=1 / chroma_qp_offset=-2 / threads=1 / sliced_threads=0 / nr=0 / decimate=1 / interlaced=0 / bluray_compat=0 / constrained_intra=0 / bframes=3 / b_pyramid=0 / b_adapt=1 / b_bias=0 / direct=1 / weightb=0 / open_gop=1 / weightp=2 / keyint=250 / keyint_min=23 / scenecut=40 / intra_refresh=0 / rc_lookahead=40 / rc=crf / mbtree=1 / crf=23.0 / qcomp=0.60 / qpmin=0 / qpmax=69 / qpstep=4 / ip_ratio=1.25 / aq=1:1.00
Encoded date : UTC 2013-11-13 04:05:57
Tagged date : UTC 2013-11-13 04:05:57

Audio
ID : 2
Format : AAC
Format/Info : Advanced Audio Codec
Format profile : LC
Codec ID : 40
Duration : 20 min 40 s
Bit rate mode : Variable
Bit rate : 200 kb/s
Channel(s) : 2 channels
Channel positions : Front: L R
Sampling rate : 44.1 kHz
Frame rate : 43.066 FPS (1024 spf)
Compression mode : Lossy
Stream size : 29.6 MiB (45%)
Default : Yes
Alternate group : 1
Encoded date : UTC 2013-11-13 04:05:57
Tagged date : UTC 2013-11-13 04:05:57
download

Kód: Vybrat vše

http://xshare.cz/va/Brickleberry.S02E11.HDTV.x264-2HD.mp4
Obrázek

Kód: Vybrat vše

http://datoid.cz/?p=143827  
Odpovědět

Zpět na „Seriály“