12 Monkeys / CZ titulky / dabing eng / 2015

Moderátor: KlopuX

Odpovědět
warup
Navigátor
Navigátor
Příspěvky: 1320
Registrován: 05 zář 2014 21:01
Dal poděkování: 2 poděkování
Dostal poděkování: 1 poděkování

12 Monkeys / CZ titulky / dabing eng / 2015

Příspěvek od warup » 25 bře 2016 09:20

12 Monkeys S01E01 HDTV 01x01 CZ titulky v obraze

Obrázek

info

Kód: Vybrat vše

http://www.csfd.cz/film/378415-12-opic/prehled/
James Cole je poslán z budoucnosti, aby zachránil lidstvo před virem, který v roce 2017 zabije 7 miliard lidí. Musí najít a zabít muže, který virus vypustil...(TV Prima)
kvalita

Kód: Vybrat vše

General
Complete name               : F:\12 Monkeys S01E01 HDTV 01x01 CZ titulky v obraze.avi
Format                      : AVI
Format/Info                 : Audio Video Interleave
File size                   : 379 MiB
Duration                    : 46mn 46s
Overall bit rate            : 1 133 Kbps
Writing application         : VirtualDubMod 1.5.10.2 (build 2542/release)
Writing library             : VirtualDubMod build 2542/release

Video
ID                          : 0
Format                      : MPEG-4 Visual
Format profile              : Advanced Simple@L5
Format settings, BVOP       : 1
Format settings, QPel       : No
Format settings, GMC        : No warppoints
Format settings, Matrix     : Default (H.263)
Muxing mode                 : Packed bitstream
Codec ID                    : XVID
Codec ID/Hint               : XviD
Duration                    : 46mn 46s
Bit rate                    : 995 Kbps
Width                       : 624 pixels
Height                      : 350 pixels
Display aspect ratio        : 16:9
Frame rate                  : 23.976 fps
Color space                 : YUV
Chroma subsampling          : 4:2:0
Bit depth                   : 8 bits
Scan type                   : Progressive
Compression mode            : Lossy
Bits/(Pixel*Frame)          : 0.190
Stream size                 : 333 MiB (88%)
Writing library             : XviD 64

Audio
ID                          : 1
Format                      : MPEG Audio
Format version              : Version 1
Format profile              : Layer 3
Mode                        : Joint stereo
Mode extension              : MS Stereo
Codec ID                    : 55
Codec ID/Hint               : MP3
Duration                    : 46mn 46s
Bit rate mode               : Constant
Bit rate                    : 128 Kbps
Channel(s)                  : 2 channels
Sampling rate               : 48.0 KHz
Compression mode            : Lossy
Stream size                 : 42.8 MiB (11%)
Alignment                   : Split accross interleaves
Interleave, duration        : 42 ms (1.00 video frame)
Interleave, preload duratio : 500 ms
download

Kód: Vybrat vše

http://bitster.cz/file/dd18f8/12_Monkeys_S01E01_HDTV_01x01_CZ_titulky_v_obraze-avi
Obrázek

Kód: Vybrat vše

http://datoid.cz/?p=143827  
Odpovědět

Zpět na „Seriály“