Doctor Who (1963)

Moderátor: KlopuX

Odpovědět
warup
Navigátor
Navigátor
Příspěvky: 1314
Registrován: 05 zář 2014 21:01
Dal poděkování: 2 poděkování
Dostal poděkování: 1 poděkování

Doctor Who (1963)

Příspěvek od warup » 08 bře 2018 12:21

Doctor Who - Pán času - CZ tit. vloženy(075)-12x01---Robot---Part-4TYT.

Obrázek

info

Kód: Vybrat vše

http://www.csfd.cz/film/87991-doctor-who/prehled/
Doktor je mimozemšťan z legendárnej planéty Gallifrey, má trinásť životov a po každom úmrtí sa mu kompletne mení výzor. Spolu so svojou vnučkou Susan Foremanovou, ktorú kedysi zachránil z temných časov na Gallifrey, sa usadia so svojím strojom času zvaným TARDIS v Anglicku roku 1963. Dvom učiteľom v Susaninej škole sa však moc nezdá a tak sa ju vyberú prenasledovať. Vtedy sú nútený vstúpiť do TARDISU a spolu s Doktorom sa začnú sústavné dobrodružstvá po iných planétach v rozdielnych časových obdobiach. Navštívia rok 100 000 pred Kristom, Aztékov, Vikinsgkú éru, Trójsku vojnu a mnoho ďalších. Doctor Who je zapísaný v knihe rekordov ako najdlhšie vysielaný sci-fi seriál na svete.(matolas)
kvalita
General
Complete name : E:\vypalit\1\Doctor Who - Pán času - CZ tit. vloženy(075)-12x01---Robot---Part-4TYT.mp4
Format : MPEG-4
Format profile : Sony PSP
Codec ID : MSNV
File size : 836 MiB
Duration : 24mn 28s
Overall bit rate : 4 773 Kbps
Encoded date : UTC 2013-06-12 18:33:00
Tagged date : UTC 2013-06-12 18:33:00

Video
ID : 1
Format : AVC
Format/Info : Advanced Video Codec
Format profile : Main@L3
Format settings, CABAC : Yes
Format settings, ReFrames : 2 frames
Format settings, GOP : M=2, N=29
Codec ID : avc1
Codec ID/Info : Advanced Video Coding
Duration : 24mn 28s
Bit rate : 4 641 Kbps
Width : 640 pixels
Height : 480 pixels
Display aspect ratio : 4:3
Frame rate mode : Constant
Frame rate : 25.000 fps
Color space : YUV
Chroma subsampling : 4:2:0
Bit depth : 8 bits
Scan type : Progressive
Bits/(Pixel*Frame) : 0.604
Stream size : 812 MiB (97%)
Language : English
Encoded date : UTC 2013-06-12 18:33:00
Tagged date : UTC 2013-06-12 18:33:00

Audio
ID : 2
Format : AAC
Format/Info : Advanced Audio Codec
Format profile : LC
Codec ID : 40
Duration : 24mn 28s
Source duration : 24mn 28s
Bit rate mode : Constant
Bit rate : 128 Kbps
Channel(s) : 2 channels
Channel positions : Front: L R
Sampling rate : 48.0 KHz
Compression mode : Lossy
Stream size : 22.4 MiB (3%)
Source stream size : 22.4 MiB (3%)
Language : English
Encoded date : UTC 2013-06-12 18:33:00
Tagged date : UTC 2013-06-12 18:33:00
mdhd_Duration : 1468307
download

Kód: Vybrat vše

http://www.netshare.cz/61de4374f8943d52/Doctor_Who_-_Pán_času_-_CZ_tit._vloženy(075)-12x01---Robot---Part-4TYT
nebo

Kód: Vybrat vše

http://openload.co/f/iLn7QPSQ89Q/Doctor_Who_-_P%C3%A1n_%C4%8Dasu_-_CZ_tit._vlo%C5%BEeny%28075%29-12x01---Robot---Part-4TYT.mp4
Obrázek

Kód: Vybrat vše

http://datoid.cz/?p=143827  
Odpovědět

Zpět na „Seriály“