Rebelka / Brave (2012)

Originální animované dvd s dabingem

Moderátor: KlopuX

Odpovědět
Uživatelský avatar
Kapitel
Post man
Post man
Příspěvky: 2862
Registrován: 08 kvě 2012 19:55
Dostal poděkování: 128 poděkování

Rebelka / Brave (2012)

Příspěvek od Kapitel » 17 lis 2012 06:45

Rebelka / Brave (2012)
rel:Rebelka.2012.NTSC.CUSTOM.DVDR.CZ.SK-CiBULATOR679

Obrázek

Obrázek

Kód: Vybrat vše

http://www.csfd.cz/film/241060-rebelka/
Obrázek

Animovaný / Dobrodružný / Komedie / Rodinný
USA, 2012, 100 min

Kód: Vybrat vše

SOURCE     : DVD9 R1 NTSC
DURATiON   : 01:34:03 [HH:MM:SS]
MENU       : NO
BONUS      : NO
ViDEO      : CloneDVD 2 (Q=88%)
AUDiO      : DD 5.1 CZ SK EN
SUBTiTLES  : CZ SK EN
SiZE       : 4.33 GB
Obrázek
Obrázek

Kód: Vybrat vše

http://czshare.com/4016458/Robd5rar.part1.rar
http://czshare.com/4016478/Robd5rar.part2.rar
http://czshare.com/4016508/Robd5rar.part3.rar 
Obrázek

Kód: Vybrat vše

http://download.hellshare.com/robd5rar-part1-rar/9948626/
http://download.hellshare.com/robd5rar-part2-rar/9948642/
http://download.hellshare.com/robd5rar-part3-rar/9948653/ 
Obrázek

Kód: Vybrat vše

http://www.fastshare.cz/1782644/robd5rar.part1.rar
....nenahralo...
http://www.fastshare.cz/1782727/robd5rar.part3.rar
Obrázek

Kód: Vybrat vše

http://turbobit.net/qn8pfpqz6jm1/Robd5rar.part1.rar.html
http://turbobit.net/qmyysq5224kb/Robd5rar.part2.rar.html
http://turbobit.net/q0ff3afcm74u/Robd5rar.part3.rar.html 
Obrázek

Kód: Vybrat vše

http://www.stahovadlo.cz/soubor/9241/yn2qjD2WMF/Robd5rar.part1.rar
http://www.stahovadlo.cz/soubor/9242/M8xJuxhacY/Robd5rar.part2.rar
http://www.stahovadlo.cz/soubor/9243/GdTvQyzdZD/Robd5rar.part3.rar 
Moje uploady sú VŽDY bez hesla!!
Ak sa vyskytne chyba pri rozbaľovaní, skúste si stiahnuť zlú časť ešte raz!!
Tlačítko ďakujem alebo iné poďakovanie vždy poteší !!
Uživatelský avatar
Arminator
Radista
Radista
Příspěvky: 166
Registrován: 27 říj 2012 16:39
Dostal poděkování: 1 poděkování

Rebelka / Brave (2012)

Příspěvek od Arminator » 17 lis 2012 12:17

Obrázek
Rebelka / Brave (2012)

Obrázek
Rebelka.2012.NTSC.CUSTOM.DVDR.CZ.SK-CiBULATOR679

Obrázek

Obrázek

Kód: Vybrat vše

http://www.csfd.cz/film/241060-rebelka/
Obrázek

Kód: Vybrat vše

source - NTSC R1 DVD9
komprese - CloneDVD 2 (Q=88%)
zvuk - DD5.1 CZ (BluRay), DD 5.1 SK (BluRay), DD5.1 ENG
titulky - CZ EN
menu - NE
bonus - NE
velikost - 4.36 GB
Obrázek

Kód: Vybrat vše

http://download.hellshare.com/reld-part1-rar/9950617/
http://download.hellshare.com/reld-part2-rar/9950661/
http://download.hellshare.com/reld-part3-rar/9950666/
Obrázek

Kód: Vybrat vše

http://www.fastshare.cz/1783008/reld.part1.rar
http://www.fastshare.cz/1783001/reld.part2.rar
http://www.fastshare.cz/1783006/reld.part3.rar
Obrázek

Kód: Vybrat vše

http://czshare.com/4022060/reld.part1.rar
http://czshare.com/4022283/reld.part2.rar
http://czshare.com/4022092/reld.part3.rar
Obrázek

Kód: Vybrat vše

http://euroshare.eu/file/15563342/reld.part1.rar
http://euroshare.eu/file/15563345/reld.part2.rar
http://euroshare.eu/file/15563347/reld.part3.rar
Uživatelský avatar
revenant76
Post man
Post man
Příspěvky: 2430
Registrován: 23 úno 2008 20:50
Dostal poděkování: 65 poděkování
Kontaktovat uživatele:

Rebelka / Brave (2012)

Příspěvek od revenant76 » 17 lis 2012 16:56

Rebelka / Brave (2012)

1080p + 720p

Obrázek

Kód: Vybrat vše

http://www.csfd.cz/film/241060-rebelka/

Animovaný / Fantasy / Akční / Dobrodružný
USA, 2012, 100 min

Režie: Mark Andrews, Brenda Chapman
Hudba: Patrick Doyle
Hrají: Kelly Macdonald, Billy Connolly, Emma Thompson, Julie Walters, Kevin McKidd, Robbie Coltrane, Craig Ferguson, John Ratzenberger


Už od starých časů se po mnoho generací šíří příběhy o epických bitvách a mystických legendách v drsné a tajemné Skotské vysočině. Ve filmu se k legendě přidá nová pověst, když odvážná Merida stane tváří v tvář tradici, osudu a nejkrutější bestii. Merida je zkušená lučištnice a impulzivní dcera krále Ferguse a královny Elinor. Je odhodlána jít si v životě svou vlastní cestou. Vzepře se starému zvyku zasvěcení pánům země. Silnému lordu MacGuffinovi, mrzutému Macintoshovi a svárlivému Dingwallovi. Meridiny činy nechtěně rozpoutají v království chaos a běsnění. Když se obrátí o pomoc k podivínské staré čarodějnici, dostane prokleté přání. Merida, která následuje nebezpečné síly, objeví význam skutečné odvahy, aby zlomila příšernou kletbu, než bude příliš pozdě.


1080p

Kód: Vybrat vše

General
Complete name                            : Brave.2012.1080p.BluRay.x264.AC3.CZ.SVK.EN-HDChina-DRaCO.mkv
Format                                   : Matroska
Format version                           : Version 2
File size                                : 7.28 GiB
Duration                                 : 1h 33mn
Overall bit rate                         : 11.1 Mbps
Encoded date                             : UTC 2012-11-16 08:45:57
Writing application                      : mkvmerge v4.0.0 ('The Stars were mine') built on Jun  5 2010 17:44:09
Writing library                          : libebml v1.0.0 [b]+[/b] libmatroska v1.0.0

Video
ID                                       : 1
Format                                   : AVC
Format/Info                              : Advanced Video Codec
Format profile                           : High@L4.1
Format settings, CABAC                   : Yes
Format settings, ReFrames                : 5 frames
Codec ID                                 : V_MPEG4/ISO/AVC
Duration                                 : 1h 33mn
Bit rate                                 : 9 600 Kbps
Width                                    : 1 920 pixels
Height                                   : 804 pixels
Display aspect ratio                     : 2.40:1
Frame rate                               : 23.976 fps
Color space                              : YUV
Chroma subsampling                       : 4:2:0
Bit depth                                : 8 bits
Scan type                                : Progressive
Bits/(Pixel*Frame)                       : 0.259
Stream size                              : 6.13 GiB (84%)
Writing library                          : x264 core 128 r2216[b]+[/b]688[b]+[/b]33 06dac27 tMod[b]+[/b]MixAQ [8-bit@4:2:0 X86_64]
Encoding settings                        : cabac=1 / ref=5 / deblock=1:-2:-2 / analyse=0x3:0x113 / me=umh / subme=11 / psy=1 / fade_compensate=0.00 / 

psy_rd=0.80:0.00 / mixed_ref=1 / me_range=48 / chroma_me=1 / trellis=2 / 8x8dct=1 / cqm=0 / deadzone=21,11 / fast_pskip=0 / chroma_qp_offset=-2 / threads=18 

/ lookahead_threads=3 / sliced_threads=0 / nr=0 / decimate=0 / interlaced=0 / bluray_compat=0 / constrained_intra=0 / fgo=0 / bframes=8 / b_pyramid=2 / 

b_adapt=2 / b_bias=0 / direct=3 / weightb=1 / open_gop=0 / weightp=2 / keyint=240 / keyint_min=24 / scenecut=40 / intra_refresh=0 / rc_lookahead=240 / 

rc=2pass / mbtree=1 / bitrate=9600 / ratetol=1.0 / qcomp=0.70 / qpmin=0 / qpmax=69 / qpstep=4 / cplxblur=20.0 / qblur=0.5 / ip_ratio=1.10 / aq=4 / aq-

strength=1.15 / aq-sensitivity=10.00 / aq-ifactor=1.00 / aq-pfactor=1.00 / aq-bfactor=1.00 / aq2=0
Language                                 : English
Default                                  : No
Forced                                   : No

Audio #1
ID                                       : 2
Format                                   : AC-3
Format/Info                              : Audio Coding 3
Mode extension                           : CM (complete main)
Format settings, Endianness              : Big
Codec ID                                 : A_AC3
Duration                                 : 1h 33mn
Bit rate mode                            : Constant
Bit rate                                 : 448 Kbps
Channel(s)                               : 6 channels
Channel positions                        : Front: L C R, Side: L R, LFE
Sampling rate                            : 48.0 KHz
Bit depth                                : 16 bits
Compression mode                         : Lossy
Stream size                              : 300 MiB (4%)
Title                                    : ac3 5.1 cz
Language                                 : Czech
Default                                  : Yes
Forced                                   : Yes

Audio #2
ID                                       : 3
Format                                   : AC-3
Format/Info                              : Audio Coding 3
Mode extension                           : CM (complete main)
Format settings, Endianness              : Big
Codec ID                                 : A_AC3
Duration                                 : 1h 33mn
Bit rate mode                            : Constant
Bit rate                                 : 448 Kbps
Channel(s)                               : 6 channels
Channel positions                        : Front: L C R, Side: L R, LFE
Sampling rate                            : 48.0 KHz
Bit depth                                : 16 bits
Compression mode                         : Lossy
Stream size                              : 300 MiB (4%)
Title                                    : ac3 5.1 svk
Language                                 : Slovak
Default                                  : No
Forced                                   : No

Audio #3
ID                                       : 4
Format                                   : AC-3
Format/Info                              : Audio Coding 3
Mode extension                           : CM (complete main)
Format settings, Endianness              : Big
Codec ID                                 : A_AC3
Duration                                 : 1h 33mn
Bit rate mode                            : Constant
Bit rate                                 : 640 Kbps
Channel(s)                               : 6 channels
Channel positions                        : Front: L C R, Side: L R, LFE
Sampling rate                            : 48.0 KHz
Bit depth                                : 16 bits
Compression mode                         : Lossy
Stream size                              : 429 MiB (6%)
Title                                    : dts-eng
Language                                 : English
Default                                  : No
Forced                                   : No

Text #1
ID                                       : 5
Format                                   : UTF-8
Codec ID                                 : S_TEXT/UTF8
Codec ID/Info                            : UTF-8 Plain Text
Title                                    : Sub-cz
Language                                 : Czech
Default                                  : No
Forced                                   : No

Text #2
ID                                       : 6
Format                                   : UTF-8
Codec ID                                 : S_TEXT/UTF8
Codec ID/Info                            : UTF-8 Plain Text
Title                                    : Forced-cz
Language                                 : Czech
Default                                  : Yes
Forced                                   : No

Text #3
ID                                       : 7
Format                                   : UTF-8
Codec ID                                 : S_TEXT/UTF8
Codec ID/Info                            : UTF-8 Plain Text
Title                                    : Forced-svk
Language                                 : Slovak
Default                                  : No
Forced                                   : No

Text #4
ID                                       : 8
Format                                   : UTF-8
Codec ID                                 : S_TEXT/UTF8
Codec ID/Info                            : UTF-8 Plain Text
Default                                  : No
Forced                                   : No

Kód: Vybrat vše

http://download.hellshare.cz/ykrwcg89nnpz-part1-rar/9959644/
http://download.hellshare.cz/ykrwcg89nnpz-part2-rar/9959712/
http://download.hellshare.cz/ykrwcg89nnpz-part3-rar/9959780/
http://download.hellshare.cz/ykrwcg89nnpz-part4-rar/9959841/

720p

Kód: Vybrat vše

General
Complete name                            : Brave.2012.[b]720p[/b].BluRay.CZ.SK.mkv
Format                                   : Matroska
Format version                           : Version 2
File size                                : 4.16 GiB
Duration                                 : 1h 34mn
Overall bit rate                         : 6 329 Kbps
Movie name                               : Brave (2012) - HQ-ViDEO
Encoded date                             : UTC 2012-11-16 09:03:11
Writing application                      : mkvmerge v5.8.0 ('No Sleep / Pillow') built on Sep  2 2012 15:37:04
Writing library                          : libebml v1.2.3 [b]+[/b] libmatroska v1.3.0

Video
ID                                       : 1
Format                                   : AVC
Format/Info                              : Advanced Video Codec
Format profile                           : High@L4.1
Format settings, CABAC                   : Yes
Format settings, ReFrames                : 11 frames
Codec ID                                 : V_MPEG4/ISO/AVC
Duration                                 : 1h 34mn
Bit rate                                 : 4 800 Kbps
Width                                    : 1 280 pixels
Height                                   : 536 pixels
Display aspect ratio                     : 2.40:1
Frame rate                               : 23.976 fps
Color space                              : YUV
Chroma subsampling                       : 4:2:0
Bit depth                                : 8 bits
Scan type                                : Progressive
Bits/(Pixel*Frame)                       : 0.292
Stream size                              : 3.07 GiB (74%)
Title                                    : Brave
Writing library                          : x264 core 116 r2057 0ba8a9c
Encoding settings                        : cabac=1 / ref=11 / deblock=1:-3:-3 / analyse=0x3:0x133 / me=umh / subme=10 / psy=1 / psy_rd=1.00:0.00 / 

mixed_ref=1 / me_range=32 / chroma_me=1 / trellis=2 / 8x8dct=1 / cqm=0 / deadzone=21,11 / fast_pskip=0 / chroma_qp_offset=-2 / threads=14 / sliced_threads=0 

/ nr=0 / decimate=0 / interlaced=0 / bluray_compat=0 / constrained_intra=0 / bframes=7 / b_pyramid=2 / b_adapt=2 / b_bias=0 / direct=3 / weightb=1 / 

open_gop=0 / weightp=2 / keyint=250 / keyint_min=23 / scenecut=40 / intra_refresh=0 / rc_lookahead=40 / rc=2pass / mbtree=0 / bitrate=4800 / ratetol=1.0 / 

qcomp=0.65 / qpmin=0 / qpmax=40 / qpstep=4 / cplxblur=20.0 / qblur=0.5 / vbv_maxrate=50000 / vbv_bufsize=50000 / nal_hrd=none / ip_ratio=1.25 / pb_ratio=1.25 

/ aq=1:0.65
Language                                 : English
Default                                  : Yes
Forced                                   : No

Audio #1
ID                                       : 2
Format                                   : AC-3
Format/Info                              : Audio Coding 3
Mode extension                           : CM (complete main)
Format settings, Endianness              : Big
Codec ID                                 : A_AC3
Duration                                 : 1h 34mn
Bit rate mode                            : Constant
Bit rate                                 : 448 Kbps
Channel(s)                               : 6 channels
Channel positions                        : Front: L C R, Side: L R, LFE
Sampling rate                            : 48.0 KHz
Bit depth                                : 16 bits
Compression mode                         : Lossy
Stream size                              : 302 MiB (7%)
Title                                    : Czech
Language                                 : Czech
Default                                  : Yes
Forced                                   : No

Audio #2
ID                                       : 3
Format                                   : AC-3
Format/Info                              : Audio Coding 3
Mode extension                           : CM (complete main)
Format settings, Endianness              : Big
Codec ID                                 : A_AC3
Duration                                 : 1h 34mn
Bit rate mode                            : Constant
Bit rate                                 : 448 Kbps
Channel(s)                               : 6 channels
Channel positions                        : Front: L C R, Side: L R, LFE
Sampling rate                            : 48.0 KHz
Bit depth                                : 16 bits
Compression mode                         : Lossy
Stream size                              : 302 MiB (7%)
Title                                    : Slovak
Language                                 : Slovak
Default                                  : No
Forced                                   : No

Audio #3
ID                                       : 4
Format                                   : AC-3
Format/Info                              : Audio Coding 3
Mode extension                           : CM (complete main)
Format settings, Endianness              : Big
Codec ID                                 : A_AC3
Duration                                 : 1h 34mn
Bit rate mode                            : Constant
Bit rate                                 : 640 Kbps
Channel(s)                               : 6 channels
Channel positions                        : Front: L C R, Side: L R, LFE
Sampling rate                            : 48.0 KHz
Bit depth                                : 16 bits
Compression mode                         : Lossy
Stream size                              : 431 MiB (10%)
Title                                    : English
Language                                 : English
Default                                  : No
Forced                                   : No

Text #1
ID                                       : 5
Format                                   : UTF-8
Codec ID                                 : S_TEXT/UTF8
Codec ID/Info                            : UTF-8 Plain Text
Title                                    : English
Language                                 : English
Default                                  : No
Forced                                   : No

Text #2
ID                                       : 6
Format                                   : PGS
Codec ID                                 : S_HDMV/PGS
Codec ID/Info                            : The same subtitle format used on BDs/HD-DVDs
Title                                    : Czech
Language                                 : Czech
Default                                  : No
Forced                                   : No

Menu
00:00:00.000                             : en:00:00:00.000
00:04:22.846                             : en:00:04:22.846
00:09:17.432                             : en:00:09:17.432
00:12:53.356                             : en:00:12:53.356
00:14:00.256                             : en:00:14:00.256
00:16:10.469                             : en:00:16:10.469
00:17:36.681                             : en:00:17:36.681
00:22:55.791                             : en:00:22:55.791
00:27:22.891                             : en:00:27:22.891
00:28:51.229                             : en:00:28:51.229
00:30:54.853                             : en:00:30:54.853
00:34:00.372                             : en:00:34:00.372
00:36:03.495                             : en:00:36:03.495
00:39:06.928                             : en:00:39:06.928
00:41:55.096                             : en:00:41:55.096
00:43:27.980                             : en:00:43:27.980
00:47:05.740                             : en:00:47:05.740
00:48:22.358                             : en:00:48:22.358
00:51:04.061                             : en:00:51:04.061
00:52:33.859                             : en:00:52:33.859
00:54:01.155                             : en:00:54:01.155
00:54:45.699                             : en:00:54:45.699
00:57:30.864                             : en:00:57:30.864
00:59:00.162                             : en:00:59:00.162
01:02:48.181                             : en:01:02:48.181
01:03:27.387                             : en:01:03:27.387
01:09:57.735                             : en:01:09:57.735
01:10:37.275                             : en:01:10:37.275
01:12:35.726                             : en:01:12:35.726
01:13:39.498                             : en:01:13:39.498
01:15:35.489                             : en:01:15:35.489
01:16:59.073                             : en:01:16:59.073
01:17:37.111                             : en:01:17:37.111
01:19:48.200                             : en:01:19:48.200
01:23:16.783                             : en:01:23:16.783
01:24:38.657                             : en:01:24:38.657
01:32:52.567                             : en:01:32:52.567

Kód: Vybrat vše

http://download.hellshare.cz/fzpa2x6creg2-part1-rar/9958810/
http://download.hellshare.cz/fzpa2x6creg2-part2-rar/9958868/
http://download.hellshare.cz/fzpa2x6creg2-part3-rar/9958881/
jouda666
Radista
Radista
Příspěvky: 178
Registrován: 12 črc 2012 07:51
Dostal poděkování: 1 poděkování

Rebelka / Brave (2012)

Příspěvek od jouda666 » 18 lis 2012 09:55

Rebelka.2012.NTSC.CUSTOM.DVDR.CZ.SK-CiBULATOR679

Obrázek

Kód: Vybrat vše

http://www.csfd.cz/film/241060

Kód: Vybrat vše

Audio: 5.1 Czech, Slovak, English 
Titulky: Czech, Slovak, English 
Menu: Ne 
Bonus: Ne 
Video: CloneDVD 2 (Q=88%) 
Velikost: 4.33 GB 
Obrázek

Kód: Vybrat vše

http://download.hellshare.com/reb-d5-part1-rar/9975526/
http://download.hellshare.com/reb-d5-part2-rar/9975651/
http://download.hellshare.com/reb-d5-part3-rar/9975726/
http://download.hellshare.com/reb-d5-part4-rar/9975781/
http://download.hellshare.com/reb-d5-part5-rar/9975788/
Obrázek

Kód: Vybrat vše

http://www.fastshare.cz/1786459/reb-d5.part1.rar
http://www.fastshare.cz/1786482/reb-d5.part3.rar
http://www.fastshare.cz/1786484/reb-d5.part2.rar
http://www.fastshare.cz/1786489/reb-d5.part5.rar
http://www.fastshare.cz/1786500/reb-d5.part4.rar
Obrázek

Kód: Vybrat vše

http://czshare.com/4040142/reb_d5.part1.rar
http://czshare.com/4040149/reb_d5.part2.rar
http://czshare.com/4040250/reb_d5.part3.rar
http://czshare.com/4040260/reb_d5.part4.rar
http://czshare.com/4040290/reb_d5.part5.rar
Povoleno postování od ICATHAN
Uživatelský avatar
revenant76
Post man
Post man
Příspěvky: 2430
Registrován: 23 úno 2008 20:50
Dostal poděkování: 65 poděkování
Kontaktovat uživatele:

Rebelka / Brave (2012)

Příspěvek od revenant76 » 26 pro 2012 16:57

Rebelka / Brave (2012)

Obrázek

Kód: Vybrat vše

http://www.csfd.cz/film/241060-rebelka/

Animovaný / Fantasy / Akční / Dobrodružný
USA, 2012, 100 min

Režie: Mark Andrews, Brenda Chapman
Hudba: Patrick Doyle
Hrají: Kelly Macdonald, Billy Connolly, Emma Thompson, Julie Walters, Kevin McKidd, Robbie Coltrane, Craig Ferguson, John Ratzenberger


Už od starých časů se po mnoho generací šíří příběhy o epických bitvách a mystických legendách v drsné a tajemné Skotské vysočině. Ve filmu se k legendě přidá nová pověst, když odvážná Merida stane tváří v tvář tradici, osudu a nejkrutější bestii. Merida je zkušená lučištnice a impulzivní dcera krále Ferguse a královny Elinor. Je odhodlána jít si v životě svou vlastní cestou. Vzepře se starému zvyku zasvěcení pánům země. Silnému lordu MacGuffinovi, mrzutému Macintoshovi a svárlivému Dingwallovi. Meridiny činy nechtěně rozpoutají v království chaos a běsnění. Když se obrátí o pomoc k podivínské staré čarodějnici, dostane prokleté přání. Merida, která následuje nebezpečné síly, objeví význam skutečné odvahy, aby zlomila příšernou kletbu, než bude příliš pozdě.


Delka: 100 minut
Zvukove stopy: DD5.1 CZ, SVK, ENG
Titulky: Czech / Slovak / English
Menu: -
Bonus: -

Kód: Vybrat vše

http://download.hellshare.cz/7cbc6uh3u24e-part1-rar/10646101/
http://download.hellshare.cz/7cbc6uh3u24e-part2-rar/10646128/
http://download.hellshare.cz/7cbc6uh3u24e-part3-rar/10646144/
Uživatelský avatar
alien007h
Logistik
Logistik
Příspěvky: 77
Registrován: 29 pro 2008 18:29

Rebelka / Brave (2012)

Příspěvek od alien007h » 23 led 2015 18:56

Rebelka / Brave (2012)

Obrázek

Info: CSFD

Kód: Vybrat vše

http://www.csfd.cz/film/241060-rebelka/ 

Kód: Vybrat vše

Animovaný / Fantasy / Akční / Dobrodružný / Komedie
USA, 2012, 90 min

Režie: Mark Andrews, Brenda Chapman
Scénář: Brenda Chapman, Irene Mecchi
Hudba: Patrick Doyle
Hrají: Kelly Macdonald, Billy Connolly, Emma Thompson, Julie Walters, Kevin McKidd, Robbie Coltrane, Craig Ferguson, John Ratzenberger

Obsah: Citace
Už od starých časů se po mnoho generací šíří příběhy o epických bitvách a mystických legendách v drsné a tajemné Skotské vysočině. Ve filmu se k legendě přidá nová pověst, když odvážná Merida stane tváří v tvář tradici, osudu a nejkrutější bestii. Merida je zkušená lučištnice a impulzivní dcera krále Ferguse a královny Elinor. Je odhodlána jít si v životě svou vlastní cestou. Vzepře se starému zvyku zasvěcení pánům země. Silnému lordu MacGuffinovi, mrzutému Macintoshovi a svárlivému Dingwallovi. Meridiny činy nechtěně rozpoutají v království chaos a běsnění. Když se obrátí o pomoc k podivínské staré čarodějnici, dostane prokleté přání. Merida, která následuje nebezpečné síly, objeví význam skutečné odvahy, aby zlomila příšernou kletbu, než bude příliš pozdě.(oficiální text distributora) 
Parametry:

Kód: Vybrat vše

Typ souboru: avi
Velikost souboru: 741.3 MB
Video
Délka videa: 1h 33m 37s, Rozlišení: 688*288, 
Frekvence snímků: 23.976 / s 
Audio
Kodek: mp3, Bitrate: 128000 , Počet kanálů: 2 , Czech 
LINK:

Kód: Vybrat vše

http://www.edisk.cz/stahni/43221/Rebelka-2012-CZ_dab-Alien007.avi_741.3MB.html
http://www.exashare.com/7ep2xvwj486t
http://www.fastshare.cz/4116443/rebelka-2012-cz-dab-alien007.avi
Odpovědět

Zpět na „Animované“