Já, padouch - Kolekce 6..8 Minifilmů (2014)

Originální animované dvd s dabingem

Moderátor: KlopuX

Odpovědět
Uživatelský avatar
bbery
Technik
Technik
Příspěvky: 304
Registrován: 14 bře 2005 20:29
Dostal poděkování: 24 poděkování

Já, padouch - Kolekce 6..8 Minifilmů (2014)

Příspěvek od bbery » 15 led 2015 23:04

Já, padouch - Kolekce 6..8 Minifilmů (2014)

Obrázek

info:

Kód: Vybrat vše

http://www.csfd.cz/film/300387-ja-padouch-2/
Animovaný / Sci-Fi / Dobrodružný / Krimi / Komedie / Rodinný
USA, 2014, 98 min
Jazyk:CZ,Ang,Pl
Režie: Pierre Coffin, Chris Renaud
Scénář: Ken Daurio, Cinco Paul
Hudba: Pharrell Williams, Heitor Pereira
Hrají: Steve Carell, Kristen Wiig, Benjamin Bratt, Miranda Cosgrove, Russell Brand, Ken Jeong, Steve Coogan, Elsie Kate Fisher, Dana Gaier, Nasim Pedrad, Kristen Schaal, Pierre Coffin, Chris Renaud, Jess Harnell, Alec Medlock, Laraine Newman, Jim Ward, Moises Arias, Eva Bella, Vanessa Bayer
Obsah:
Může být napravený padouch vůbec ještě zábavný? Když vypráví pohádky na dobrou noc? Když se bojí o nevinnost své nejstarší dcery? Když už nechce vůbec nic ukrást? Gru naštěstí neskončí jako obyčejný civil, protože v jeho nitru se stále ukrývají schopnosti, které by leckdo rád využil. Jako například šéf mocné Antipadoušské ligy, Silas Velezadek (To příjmení nekomentujte, nemá to rád). Silas sice padouchy všeho druhu hluboce opovrhuje, ale kdo se může do myšlení zlosyna vcítit líp než zlosyn bývalý? A tak vyšle svou nejlepší agentku Lucy Wilde, aby Grua při...

Kód: Vybrat vše

http://www.fastshare.cz/3997963/ja-padouch-kolekce-8-minifilmu-2014-dvd.rar

Kód: Vybrat vše

Duration : 3mn 46s
      Overall bit rate mode : Variable
      Overall bit rate : 23.6 Mbps
   Video #224
      ID : 224 (0xE0)
      Format : MPEG Video
      Format version : Version 2
      Format profile : Main@Main
      Format settings, BVOP : Yes
      Format settings, Matrix : Custom
      Format settings, GOP : Variable
      Duration : 89ms
      Bit rate mode : Variable
      Bit rate : 22.0 Mbps
      Maximum bit rate : 9 800 Kbps
      Width : 720 pixels
      Height : 576 pixels
      Display aspect ratio : 16:9
      Frame rate : 25.000 fps
      Standard : PAL
      Color space : YUV
      Chroma subsampling : 4:2:0
      Bit depth : 8 bits
      Scan type : Interlaced
      Scan order : Top Field First
      Compression mode : Lossy
      Bits/(Pixel*Frame) : 2.121
      Time code of first frame : 00:59:59:00
      Time code source : Group of pictures header
      Stream size : 215 KiB (0%)
   Audio #189-128
      ID : 189 (0xBD)-128 (0x80)
      Format : AC-3
      Format/Info : Audio Coding 3
      Mode extension : CM (complete main)
      Format settings, Endianness : Big
      Muxing mode : DVD-Video
      Duration : 3mn 46s
      Bit rate mode : Constant
      Bit rate : 384 Kbps
      Channel(s) : 6 channels
      Channel positions : Front: L C R, Side: L R, LFE
      Sampling rate : 48.0 KHz
      Bit depth : 16 bits
      Compression mode : Lossy
      Stream size : 10.4 MiB (2%)
   Audio #189-129
      ID : 189 (0xBD)-129 (0x81)
      Format : AC-3
      Format/Info : Audio Coding 3
      Mode extension : CM (complete main)
      Format settings, Endianness : Big
      Muxing mode : DVD-Video
      Duration : 3mn 46s
      Bit rate mode : Constant
      Bit rate : 384 Kbps
      Channel(s) : 6 channels
      Channel positions : Front: L C R, Side: L R, LFE
      Sampling rate : 48.0 KHz
      Bit depth : 16 bits
      Compression mode : Lossy
      Stream size : 10.4 MiB (2%)
   Audio #189-130
      ID : 189 (0xBD)-130 (0x82)
      Format : AC-3
      Format/Info : Audio Coding 3
      Mode extension : CM (complete main)
      Format settings, Endianness : Big
      Muxing mode : DVD-Video
      Duration : 3mn 46s
      Bit rate mode : Constant
      Bit rate : 384 Kbps
      Channel(s) : 6 channels
      Channel positions : Front: L C R, Side: L R, LFE
      Sampling rate : 48.0 KHz
      Bit depth : 16 bits
      Compression mode : Lossy
      Stream size : 10.4 MiB (2%)
   Text #189-33
      ID : 189 (0xBD)-33 (0x21)
      Format : RLE
      Format/Info : Run-length encoding
      Muxing mode : DVD-Video
      Delay relative to video : 2s 680ms
   Text #189-34
      ID : 189 (0xBD)-34 (0x22)
      Format : RLE
      Format/Info : Run-length encoding
      Muxing mode : DVD-Video
      Delay relative to video : 2s 680ms
   Text #189-35
      ID : 189 (0xBD)-35 (0x23)
      Format : RLE
      Format/Info : Run-length encoding
      Muxing mode : DVD-Video
      Delay relative to video : 2s 680ms
   Text #189-36
      ID : 189 (0xBD)-36 (0x24)
      Format : RLE
      Format/Info : Run-length encoding
      Muxing mode : DVD-Video
      Delay relative to video : 2s 680ms
   Text #189-37
      ID : 189 (0xBD)-37 (0x25)
      Format : RLE
      Format/Info : Run-length encoding
      Muxing mode : DVD-Video
      Delay relative to video : 2s 680ms
   Text #189-38
      ID : 189 (0xBD)-38 (0x26)
      Format : RLE
      Format/Info : Run-length encoding
      Muxing mode : DVD-Video
      Delay relative to video : 2s 680ms
[/code]


Naposledy oživil bbery v 15 led 2015 23:04
Odpovědět

Zpět na „Animované“