filmy + serialy by upload warup

Kolekce, které si tvoříte sami

Moderátor: KlopuX

warup
Navigátor
Navigátor
Příspěvky: 1320
Registrován: 05 zář 2014 21:01
Dal poděkování: 2 poděkování
Dostal poděkování: 1 poděkování

filmy + serialy by upload warup

Příspěvek od warup » 26 říj 2016 16:58

Batman-a-Robin-dustojnik

Obrázek

info

Kód: Vybrat vše

http://www.csfd.cz/film/8215-batman-a-robin/prehled/
Napětí a strach: Přikryje Gotham City věčný příkrov ledu? George Clooney bojuje jako černý rytíř Batman proti nejhroznějšímu nebezpečí: ledový Mr. Freeze (Arnold Schwarzenegger) a jedovatá Poison Ivy (Uma Thurman) ohrožují město. Batman však musí ochránit více než jen Gotham City - mladická zanícenost kamaráda Robina (Chris O'Donnell) bojujícího se zločinem a krásná Batgirl (Alicia Silverstone) jej často vystavují nebezpečí.(oficiální text distributora)
kvalita
General
Complete name : D:\up\Batman-a-Robin-dustojnik.avi
Format : AVI
Format/Info : Audio Video Interleave
File size : 700 MiB
Duration : 1h 54mn
Overall bit rate : 852 Kbps

Video
ID : 0
Format : MPEG-4 Visual
Format profile : Advanced Simple@L5
Format settings, BVOP : 2
Format settings, QPel : No
Format settings, GMC : No warppoints
Format settings, Matrix : Default (H.263)
Muxing mode : Packed bitstream
Codec ID : XVID
Codec ID/Hint : XviD
Duration : 1h 54mn
Bit rate : 731 Kbps
Width : 640 pixels
Height : 360 pixels
Display aspect ratio : 16:9
Frame rate : 25.000 fps
Color space : YUV
Chroma subsampling : 4:2:0
Bit depth : 8 bits
Scan type : Progressive
Compression mode : Lossy
Bits/(Pixel*Frame) : 0.127
Stream size : 600 MiB (86%)
Writing library : XviD 1.2.0SMP (UTC 2006-01-08)

Audio
ID : 1
Format : MPEG Audio
Format version : Version 1
Format profile : Layer 3
Codec ID : 55
Codec ID/Hint : MP3
Duration : 1h 54mn
Bit rate mode : Constant
Bit rate : 112 Kbps
Channel(s) : 2 channels
Sampling rate : 48.0 KHz
Compression mode : Lossy
Delay relative to video : 24ms
Stream size : 92.0 MiB (13%)
Alignment : Split accross interleaves
Interleave, duration : 40 ms (1.00 video frame)
Title : Audio Stream
download

Kód: Vybrat vše

http://webshare.cz/#/file/152k425036
Obrázek

Kód: Vybrat vše

http://datoid.cz/?p=143827  
warup
Navigátor
Navigátor
Příspěvky: 1320
Registrován: 05 zář 2014 21:01
Dal poděkování: 2 poděkování
Dostal poděkování: 1 poděkování

filmy + serialy by upload warup

Příspěvek od warup » 26 říj 2016 18:52

Byl jednou jeden král...

Obrázek

info

Kód: Vybrat vše

http://www.csfd.cz/film/10089-byl-jednou-jeden-kral/prehled/
Byl jednou jeden král a ten si říkal Já První. Chtěl odevzdat vládu té ze tří dcer, která ho má nejraději. Drahomíra ho má ráda jako zlato, Zpěvanka jako zlato v hrdle a nejmladší Maruška jako sůl. Krále přirovnání k obyčejné soli rozhněvá, vyžene Marušku ze zámku a rozkáže všechnu sůl v království zničit. Brzy však zjistí, že bez soli se nedá žít, a uzná, že Maruška měla pravdu. Všechny princezny si mezitím najdou ty pravé ženichy – zahradníka, dudáka a rybáře. A protože i král pozná, že se mu bude lépe žít ve dvou, vezme si vdovu Kubátovou. A tak pohádka končí velikou společnou svatbou.(oficiální text distributora)
kvalita

Kód: Vybrat vše

General
Complete name               : D:\up\Byl jednou jeden král....avi
Format                      : AVI
Format/Info                 : Audio Video Interleave
File size                   : 1.37 GiB
Duration                    : 1h 37mn
Overall bit rate            : 2 011 Kbps
Writing application         : VirtualDubMod 1.5.4.1 (build 2178/release)
Writing library             : VirtualDubMod build 2178/release

Video
ID                          : 0
Format                      : MPEG-4 Visual
Format profile              : Advanced Simple@L5
Format settings, BVOP       : 1
Format settings, QPel       : No
Format settings, GMC        : No warppoints
Format settings, Matrix     : Custom
Codec ID                    : XVID
Codec ID/Hint               : XviD
Duration                    : 1h 37mn
Bit rate                    : 1 812 Kbps
Width                       : 512 pixels
Height                      : 384 pixels
Display aspect ratio        : 4:3
Frame rate                  : 25.000 fps
Color space                 : YUV
Chroma subsampling          : 4:2:0
Bit depth                   : 8 bits
Scan type                   : Progressive
Compression mode            : Lossy
Bits/(Pixel*Frame)          : 0.369
Stream size                 : 1.23 GiB (90%)
Writing library             : XviD 64

Audio
ID                          : 1
Format                      : AC-3
Format/Info                 : Audio Coding 3
Mode extension              : CM (complete main)
Format settings, Endianness : Big
Codec ID                    : 2000
Duration                    : 1h 37mn
Bit rate mode               : Constant
Bit rate                    : 192 Kbps
Channel(s)                  : 2 channels
Channel positions           : Front: L R
Sampling rate               : 48.0 KHz
Compression mode            : Lossy
Stream size                 : 134 MiB (10%)
Alignment                   : Split accross interleaves
Interleave, duration        : 96 ms (2.40 video frames)
Interleave, preload duratio : 96 ms
Language                    : Czech

download

Kód: Vybrat vše

http://webshare.cz/#/file/2qc79534Z4/byl-jednou-jeden-kral-avi
Obrázek

Kód: Vybrat vše

http://datoid.cz/?p=143827  
warup
Navigátor
Navigátor
Příspěvky: 1320
Registrován: 05 zář 2014 21:01
Dal poděkování: 2 poděkování
Dostal poděkování: 1 poděkování

filmy + serialy by upload warup

Příspěvek od warup » 26 říj 2016 20:02

Hlava.statu.-komedie-avi-cz

Obrázek

info

Kód: Vybrat vše

http://www.csfd.cz/film/76239-hlava-statu/prehled/
Do voleb zbývá pár posledních týdnů a Washington zoufale shání presidentského kandidáta. Někoho, kdo s určitostí prohraje. Volba padne na Mayse Gilliama (Chris Rock), neznámého politika okrskového formátu. Mays záhy zjistí, že je jen nastrčenou figurkou a rozhodne se, že si kampaň pořádně užije. Z bratra Mitche (Bernie Mac) udělá kanditáta na vicepresidenta a rodinný tandem si začne získávat přízeň Ameriky. Scénáře, režie i hlavní role se ujal populární komik Chris Rock. Povedená komedie o tom, jak obyčejný kluk k presidentování přišel, se stala nečekaným hitem a potvrdila, že vysoká politika je vlastně veliká legrace.(oficiální text distributora)
kvalita

Kód: Vybrat vše

General
Complete name               : D:\up\Hlava.statu.-komedie-avi-cz.avi
Format                      : AVI
Format/Info                 : Audio Video Interleave
File size                   : 1.10 GiB
Duration                    : 1h 31mn
Overall bit rate            : 1 727 Kbps
Movie name                  : Head of State
Director                    : $Jack.Dunn$
Writing application         : Lavf51.19.0
Original source form/Name   : DVD_VOLUME

Video
ID                          : 0
Format                      : MPEG-4 Visual
Format profile              : Simple@L3
Format settings, BVOP       : No
Format settings, QPel       : No
Format settings, GMC        : No warppoints
Format settings, Matrix     : Default (H.263)
Codec ID                    : XVID
Codec ID/Hint               : XviD
Duration                    : 1h 31mn
Bit rate                    : 1 460 Kbps
Width                       : 704 pixels
Height                      : 390 pixels
Display aspect ratio        : 16:9
Frame rate                  : 25.000 fps
Color space                 : YUV
Chroma subsampling          : 4:2:0
Bit depth                   : 8 bits
Scan type                   : Progressive
Compression mode            : Lossy
Bits/(Pixel*Frame)          : 0.213
Stream size                 : 954 MiB (85%)
Writing library             : XviD 1.1.2 (UTC 2006-11-01)

Audio
ID                          : 1
Format                      : AC-3
Format/Info                 : Audio Coding 3
Mode extension              : CM (complete main)
Format settings, Endianness : Big
Codec ID                    : 2000
Duration                    : 1h 31mn
Bit rate mode               : Constant
Bit rate                    : 256 Kbps
Channel(s)                  : 2 channels
Channel positions           : Front: L R
Sampling rate               : 48.0 KHz
Compression mode            : Lossy
Stream size                 : 167 MiB (15%)
Alignment                   : Aligned on interleaves
Interleave, duration        : 32 ms (0.80 video frame)
Interleave, preload duratio : 32 ms
download

Kód: Vybrat vše

http://webshare.cz/#/file/7jY6225zJ1/hlava-statu-komedie-avi-cz-avi
Obrázek

Kód: Vybrat vše

http://datoid.cz/?p=143827  
warup
Navigátor
Navigátor
Příspěvky: 1320
Registrován: 05 zář 2014 21:01
Dal poděkování: 2 poděkování
Dostal poděkování: 1 poděkování

filmy + serialy by upload warup

Příspěvek od warup » 27 říj 2016 09:05

Přízrak z lesa strachu (Bigfoot 2012) horor, dobrodružný, scifi, cz dabing

Obrázek
Obrázek
Obrázek

info

Kód: Vybrat vše

http://www.csfd.cz/film/306811-prizrak-z-lesa-strachu/prehled/
Původně se měli zúčastnit hudebního festivalu v nedalekém lese. Ale na scéně se objevil krvelačný záhadný tvor...
Dějištěm filmu je Deadwood, malé městečko v Jižní Dakotě nedaleko slavného Mount Rushmore. Místní DJ Harley Henderson se mu rozhodl vdechnout nový život, a proto se snaží o zorganizování retro festivalu, který by navštívili lidé ze širokého okolí. Aby měli kde pozvaní hosté účinkovat, musí postavit obrovské jeviště, kterému má za oběť padnout nedaleký les. Enter Simon, environmentální aktivista a bývalý hudební producent v jedné osobě, se však na to nehodlá dívat se založenýma rukama a postaví se do tvrdé opozice vůči Henderson. Brzy však musí nechat spory stranou, protože na scéně se objeví bytost sice bez zájmu o nejvýznamnější místní hudební událost posledního století, ale o to s větším zájmem o samotné aktéry akce.(oficiální text distributora)
kvalita
General
Complete name : D:\up\Přízrak z lesa strachu (Bigfoot 2012) horor, dobrodružný, scifi, cz dabing.avi
Format : AVI
Format/Info : Audio Video Interleave
File size : 861 MiB
Duration : 1h 28mn
Overall bit rate mode : Variable
Overall bit rate : 1 355 Kbps
Writing application : VirtualDubMod 1.5.10.2 (build 2540/release)
Writing library : VirtualDubMod build 2540/release

Video
ID : 0
Format : MPEG-4 Visual
Format profile : Advanced Simple@L5
Format settings, BVOP : 1
Format settings, QPel : No
Format settings, GMC : No warppoints
Format settings, Matrix : Default (H.263)
Muxing mode : Packed bitstream
Codec ID : XVID
Codec ID/Hint : XviD
Duration : 1h 28mn
Bit rate : 1 217 Kbps
Width : 640 pixels
Height : 356 pixels
Display aspect ratio : 16:9
Frame rate : 23.976 fps
Color space : YUV
Chroma subsampling : 4:2:0
Bit depth : 8 bits
Scan type : Progressive
Compression mode : Lossy
Bits/(Pixel*Frame) : 0.223
Stream size : 774 MiB (90%)
Writing library : XviD 64

Audio
ID : 1
Format : MPEG Audio
Format version : Version 1
Format profile : Layer 3
Mode : Joint stereo
Mode extension : MS Stereo
Codec ID : 55
Codec ID/Hint : MP3
Duration : 1h 28mn
Bit rate mode : Variable
Bit rate : 128 Kbps
Channel(s) : 2 channels
Sampling rate : 44.1 KHz
Compression mode : Lossy
Stream size : 81.4 MiB (9%)
Alignment : Split accross interleaves
Interleave, duration : 42 ms (1.00 video frame)
Interleave, preload duratio : 500 ms
download

Kód: Vybrat vše

http://webshare.cz/#/file/1E222Q23o4/prizrak-z-lesa-strachu-bigfoot-2012-horor-dobrodruzny-scifi-cz-dabing-avi
Obrázek

Kód: Vybrat vše

http://datoid.cz/?p=143827  
warup
Navigátor
Navigátor
Příspěvky: 1320
Registrován: 05 zář 2014 21:01
Dal poděkování: 2 poděkování
Dostal poděkování: 1 poděkování

filmy + serialy by upload warup

Příspěvek od warup » 27 říj 2016 11:20

2 (2002) Star Wars - Klony útočí

Obrázek

info

Kód: Vybrat vše

http://www.csfd.cz/film/6171-star-wars-epizoda-ii-klony-utoci/prehled/
10 let po Epizodě I pokračují dobrodružství a dramatické osudy rytířů Jedi Anakina Skywalkera a Obi-Wana Kenobiho, kteří mají za úkol chránit senátorku Padmé Amidaluovou, jejíž život je ohrožen. Ke zvýšení napětí, jak se budou vyvíjet vztahy "starwarsových" hrdinů se režisér Lucas snaží děj poněkud utajit. Ale přesto jsou tu některé informace o tom, co nového se v tomto díle dozvíte více o Padmé Amidale a jejím milostném vztahu k Anakinovi, který se stane osudným pro další osud celé galaxie. Bude odhalen původ Boby Fetta a úderných oddílů Impéria. Epizoda II objasní, jak to je s "Válkou klonů", zmiňovanou v původních Hvězdných válkách. Film je temnější než Epizoda I a jeho atmosféra se blíží filmu Impérium vrací úder. Padmé a Anakin prožívají většinu filmového dobrodružství spolu a s Obi-Wan Kenobim se potkají až na konci filmu. Vrátíme se s hrdiny na Coruscant, Naboo a Tatooine. A poznáte 2 nové planety.(oficiální text distributora)
kvalita

Kód: Vybrat vše

General
Unique ID                   : 187555712228211460214973434137754578255 (0x8D19EA8ED7EF56B98787AFE52131AD4F)
Complete name               : D:\up\2 (2002) Star Wars - Klony útočí.mkv
Format                      : Matroska
Format version              : Version 2
File size                   : 1.45 GiB
Duration                    : 2h 16mn
Overall bit rate            : 1 524 Kbps
Encoded date                : UTC 2009-08-08 17:52:25
Writing application         : mkvmerge v2.9.7 ('Tenderness') built on Jul  1 2009 18:43:35
Writing library             : libebml v0.7.7 + libmatroska v0.8.1

Video
ID                          : 1
Format                      : AVC
Format/Info                 : Advanced Video Codec
Format profile              : High@L3.1
Format settings, CABAC      : Yes
Format settings, ReFrames   : 8 frames
Codec ID                    : V_MPEG4/ISO/AVC
Duration                    : 2h 16mn
Nominal bit rate            : 1 458 Kbps
Width                       : 720 pixels
Height                      : 304 pixels
Display aspect ratio        : 2.35:1
Original display aspect rat : 2.35:1
Frame rate mode             : Constant
Frame rate                  : 25.000 fps
Color space                 : YUV
Chroma subsampling          : 4:2:0
Bit depth                   : 8 bits
Scan type                   : Progressive
Bits/(Pixel*Frame)          : 0.266
Title                       : x264rip by Mizgo
Writing library             : x264 core 68 r1195 5d75a9b
Encoding settings           : cabac=1 / ref=8 / deblock=1:-1:-1 / analyse=0x3:0x113 / me=tesa / subme=9 / psy_rd=1.0:0.0 / mixed_ref=1 / me_range=32 / chroma_me=1 / trellis=2 / 8x8dct=1 / cqm=0 / deadzone=21,11 / chroma_qp_offset=-2 / threads=6 / nr=0 / decimate=0 / mbaff=0 / bframes=3 / b_pyramid=0 / b_adapt=2 / b_bias=0 / direct=3 / wpredb=1 / keyint=250 / keyint_min=25 / scenecut=40 / rc=2pass / bitrate=1458 / ratetol=1.0 / qcomp=0.60 / qpmin=10 / qpmax=51 / qpstep=4 / cplxblur=20.0 / qblur=0.5 / vbv_maxrate=17500 / vbv_bufsize=14000 / ip_ratio=1.40 / pb_ratio=1.30 / aq=1:1.00
Language                    : English
Default                     : Yes
Forced                      : No

Audio
ID                          : 2
Format                      : AAC
Format/Info                 : Advanced Audio Codec
Format profile              : HE-AAC / LC
Codec ID                    : A_AAC
Duration                    : 2h 16mn
Channel(s)                  : 2 channels
Channel positions           : Front: L R
Sampling rate               : 48.0 KHz / 24.0 KHz
Compression mode            : Lossy
Title                       : CZE
Language                    : Czech
Default                     : Yes
Forced                      : No

Menu
00:00:00.097                : en:00:00:00.097
download

Kód: Vybrat vše

http://webshare.cz/#/file/5m35iQ2v12/2-2002-star-wars-klony-utoci-mkv
Obrázek

Kód: Vybrat vše

http://datoid.cz/?p=143827  
warup
Navigátor
Navigátor
Příspěvky: 1320
Registrován: 05 zář 2014 21:01
Dal poděkování: 2 poděkování
Dostal poděkování: 1 poděkování

filmy + serialy by upload warup

Příspěvek od warup » 30 říj 2016 20:51

Křižovatka-smrti_cz_Rush-Hou

Obrázek

info

Kód: Vybrat vše

http://www.csfd.cz/film/7589-krizovatka-smrti/prehled/
Policejní detektiv ve službách FBI pátrá po unesené dcerce čínského velvyslance. Na pomoc mu přichází velvyslancův přítel, který považuje za svoji povinnost pomoci při její záchráně. Rozjíždí se pátrání protkané spoustou neuvěřitelných honiček, akčních scén a prvky asijských bojových umění. Nakonec je dcerka zachráněna a únosci předáni spravedlnosti.(oficiální text distributora)
kvalita

Kód: Vybrat vše

General
Complete name               : D:\up\Křižovatka-smrti_cz_Rush-Hour.avi
Format                      : AVI
Format/Info                 : Audio Video Interleave
File size                   : 966 MiB
Duration                    : 1h 33mn
Overall bit rate            : 1 440 Kbps

Video
ID                          : 0
Format                      : MPEG-4 Visual
Format profile              : Advanced Simple@L5
Format settings, BVOP       : 2
Format settings, QPel       : No
Format settings, GMC        : No warppoints
Format settings, Matrix     : Default (H.263)
Codec ID                    : XVID
Codec ID/Hint               : XviD
Duration                    : 1h 33mn
Bit rate                    : 1 300 Kbps
Width                       : 704 pixels
Height                      : 304 pixels
Display aspect ratio        : 2.35:1
Frame rate                  : 25.000 fps
Color space                 : YUV
Chroma subsampling          : 4:2:0
Bit depth                   : 8 bits
Scan type                   : Progressive
Compression mode            : Lossy
Bits/(Pixel*Frame)          : 0.243
Stream size                 : 872 MiB (90%)
Writing library             : XviD 64

Audio
ID                          : 1
Format                      : MPEG Audio
Format version              : Version 1
Format profile              : Layer 3
Codec ID                    : 55
Codec ID/Hint               : MP3
Duration                    : 1h 33mn
Source duration             : 1h 33mn
Bit rate mode               : Constant
Bit rate                    : 128 Kbps
Channel(s)                  : 2 channels
Sampling rate               : 44.1 KHz
Compression mode            : Lossy
Stream size                 : 85.9 MiB (9%)
Alignment                   : Split accross interleaves
Interleave, duration        : 26 ms (0.65 video frame)
download

Kód: Vybrat vše

http://bitster.cz/file/ab4f50/Krizovatka-smrti-cz-Rush-Hour-avi
Obrázek

Kód: Vybrat vše

http://datoid.cz/?p=143827  
warup
Navigátor
Navigátor
Příspěvky: 1320
Registrován: 05 zář 2014 21:01
Dal poděkování: 2 poděkování
Dostal poděkování: 1 poděkování

filmy + serialy by upload warup

Příspěvek od warup » 31 říj 2016 18:40

Arthur.2011.BRRip.XviD.CZ-LEADERs

Obrázek

info

Kód: Vybrat vše

http://www.csfd.cz/film/276998-arthur/prehled/
Russell Brand vytvořil po svém postavu roztomilého miliardáře Arthura Bacha, nezodpovědného sympaťáka, který celý život spoléhá na to, že ho z maléru vždycky dostanou dvě věci: jeho obrovské bohatství a celoživotní chůva Hobsonová (nositelka Oscara ®* Helen Mirren). Teď ho ale čeká osudová výzva: musí si vybrat mezi domluveným manželstvím s ambiciózní manažerkou Susan (Jennifer Garner), které by mu pojistilo jeho luxusní životní styl, a nejistou budoucností s tím, co se za peníze koupit nedá - jeho pravou láskou Naomi (Greta Gerwig). S nekonvenční pomocí Hobsonové podstoupí Arthur nejdražší riziko svého života a v nové verzi oscarové®* romantické komedie se naučí, co znamená být mužem.(oficiální text distributora)
kvalita

Kód: Vybrat vše

General
Complete name               : D:\up\Arthur.2011.BRRip.XviD.CZ-LEADERs.avi
Format                      : AVI
Format/Info                 : Audio Video Interleave
File size                   : 717 MiB
Duration                    : 1h 49mn
Overall bit rate            : 911 Kbps
Writing application         : VirtualDubMod 1.5.10.2 (build 2540/release)
Writing library             : VirtualDubMod build 2540/release

Video
ID                          : 0
Format                      : MPEG-4 Visual
Format profile              : Advanced Simple@L5
Format settings, BVOP       : 4
Format settings, QPel       : No
Format settings, GMC        : No warppoints
Format settings, Matrix     : Default (H.263)
Muxing mode                 : Packed bitstream
Codec ID                    : XVID
Codec ID/Hint               : XviD
Duration                    : 1h 49mn
Bit rate                    : 774 Kbps
Width                       : 656 pixels
Height                      : 368 pixels
Display aspect ratio        : 16:9
Frame rate                  : 23.976 fps
Color space                 : YUV
Chroma subsampling          : 4:2:0
Bit depth                   : 8 bits
Scan type                   : Progressive
Compression mode            : Lossy
Bits/(Pixel*Frame)          : 0.134
Stream size                 : 609 MiB (85%)
Writing library             : XviD 1.2.1 (UTC 2008-12-04)

Audio
ID                          : 1
Format                      : MPEG Audio
Format version              : Version 1
Format profile              : Layer 3
Mode                        : Joint stereo
Mode extension              : MS Stereo
Codec ID                    : 55
Codec ID/Hint               : MP3
Duration                    : 1h 49mn
Bit rate mode               : Constant
Bit rate                    : 128 Kbps
Channel(s)                  : 2 channels
Sampling rate               : 48.0 KHz
Compression mode            : Lossy
Delay relative to video     : 24ms
Stream size                 : 101 MiB (14%)
Alignment                   : Aligned on interleaves
Interleave, duration        : 42 ms (1.00 video frame)
Interleave, preload duratio : 504 ms
download

Kód: Vybrat vše

http://bitster.cz/file/7d38e9/Arthur-2011-BRRip-XviD-CZ-LEADERs-avi
Obrázek

Kód: Vybrat vše

http://datoid.cz/?p=143827  
warup
Navigátor
Navigátor
Příspěvky: 1320
Registrován: 05 zář 2014 21:01
Dal poděkování: 2 poděkování
Dostal poděkování: 1 poděkování

filmy + serialy by upload warup

Příspěvek od warup » 31 říj 2016 19:06

Autopohadky.2011.DVDRip.XviD.CZ-LEADERs

Obrázek

info

Kód: Vybrat vše

http://www.csfd.cz/film/288565-autopohadky/prehled/
Celovečerní povídkový animovaný film je sestaven ze čtyř animovaných epizod a hrané části, která vše spojuje a vytváří rámec příběhu. Každá z pohádek bude zpracována jinou technikou a jiným tvůrčím týmem. První epizoda inspirovaná Pohádkou o princezně, která se nesmála, je animována poloplastickou technologií. Režisérem této povídky je Břetislav Pojar a výtvarníkem Pavel Koutský. Druhý příběh využívá klasickou animaci loutek. Výtvarníkem a režisérem je Michal Žabka a příběh o Víle a účetním je zábavný pro děti a poučný pro tatínky. Třetí část je animovaná velmi neobvyklou technologii papírové ploché loutky v reálném prostoru. Výtvarníkem je Bára Dlouhá a režisérem František Váša. Příběh o rybáři, jeho ženě a zlaté rybce je známý, jeho nová interpretace ve světě kol a motorů je však naprosto nová. Čtvrtá epizoda se odehrává v nedaleké budoucnosti. Režisér a výtvarník Libor Pixa doufá, že zdravý rozum zvítězí nad chamtivostí a touhou být za každých okolností první. Režisérem hraných předělů bude Jakub Kohák. Vypravěčem bude zpěvák skupiny Chinaski.(oficiální text distributora)
kvalita

Kód: Vybrat vše

General
Complete name               : D:\up\Autopohadky.2011.DVDRip.XviD.CZ-LEADERs.avi
Format                      : AVI
Format/Info                 : Audio Video Interleave
File size                   : 928 MiB
Duration                    : 1h 21mn
Overall bit rate            : 1 587 Kbps
Writing application         : VirtualDubMod 1.5.10.2 (build 2540/release)
Writing library             : VirtualDubMod build 2540/release

Video
ID                          : 0
Format                      : MPEG-4 Visual
Format profile              : Advanced Simple@L5
Format settings, BVOP       : No
Format settings, QPel       : No
Format settings, GMC        : No warppoints
Format settings, Matrix     : Custom
Codec ID                    : XVID
Codec ID/Hint               : XviD
Duration                    : 1h 21mn
Bit rate                    : 1 450 Kbps
Width                       : 640 pixels
Height                      : 368 pixels
Display aspect ratio        : 1.739
Frame rate                  : 25.000 fps
Color space                 : YUV
Chroma subsampling          : 4:2:0
Bit depth                   : 8 bits
Scan type                   : Progressive
Compression mode            : Lossy
Bits/(Pixel*Frame)          : 0.246
Stream size                 : 847 MiB (91%)
Writing library             : XviD 63

Audio
ID                          : 1
Format                      : MPEG Audio
Format version              : Version 1
Format profile              : Layer 3
Mode                        : Joint stereo
Codec ID                    : 55
Codec ID/Hint               : MP3
Duration                    : 1h 21mn
Bit rate mode               : Constant
Bit rate                    : 128 Kbps
Channel(s)                  : 2 channels
Sampling rate               : 48.0 KHz
Compression mode            : Lossy
Delay relative to video     : 24ms
Stream size                 : 74.8 MiB (8%)
Alignment                   : Aligned on interleaves
Interleave, duration        : 40 ms (1.00 video frame)
Interleave, preload duratio : 504 ms
download

Kód: Vybrat vše

http://bitster.cz/file/dd6dae/Autopohadky-2011-DVDRip-XviD-CZ-LEADERs-avi
Obrázek

Kód: Vybrat vše

http://datoid.cz/?p=143827  
warup
Navigátor
Navigátor
Příspěvky: 1320
Registrován: 05 zář 2014 21:01
Dal poděkování: 2 poděkování
Dostal poděkování: 1 poděkování

filmy + serialy by upload warup

Příspěvek od warup » 31 říj 2016 19:34

Bojovníci z Los Angeles Streetfighter [1985]

Obrázek

info

Kód: Vybrat vše

http://www.csfd.cz/film/38136-rvaci-z-l-a/prehled/
Tony (Phillip Rhee) prišiel na novú školu, kde si zakrátko našiel kamaráta Younga (Jun Chong). Spoločne s ďalšími tromi členmi Youngovho gangu rozbehnú biznis – založia si bezpečnostnú službu. Keď na jednej súkromnej párty, kde mali zabezpečiť poriadok, potiahne Young peniaze drogovému dílerovi, privolá na seba i svojich spoločníkov pomstu gangu. Dvaja nájomní zabijaci, Yoshida a Kruger, prichádzajú, aby dali mládencom krvavú príučku.(beso74)
kvalita

Kód: Vybrat vše

General
Complete name               : D:\up\Bojovníci z Los Angeles Streetfighter [1985].avi
Format                      : AVI
Format/Info                 : Audio Video Interleave
File size                   : 505 MiB
Duration                    : 1h 18mn
Overall bit rate mode       : Variable
Overall bit rate            : 898 Kbps
Writing application         : MEncoder Sherpya-SVN-r30075-4.2.5
Writing library             : VirtualDub build 24415/release

Video
ID                          : 0
Format                      : MPEG-4 Visual
Format profile              : Simple@L3
Format settings, BVOP       : No
Format settings, QPel       : No
Format settings, GMC        : No warppoints
Format settings, Matrix     : Default (H.263)
Codec ID                    : XVID
Codec ID/Hint               : XviD
Duration                    : 1h 18mn
Bit rate                    : 768 Kbps
Width                       : 512 pixels
Height                      : 384 pixels
Display aspect ratio        : 4:3
Frame rate                  : 25.000 fps
Color space                 : YUV
Chroma subsampling          : 4:2:0
Bit depth                   : 8 bits
Scan type                   : Progressive
Compression mode            : Lossy
Bits/(Pixel*Frame)          : 0.156
Stream size                 : 432 MiB (85%)
Writing library             : XviD 1.2.1 (UTC 2008-12-04)

Audio
ID                          : 1
Format                      : MPEG Audio
Format version              : Version 1
Format profile              : Layer 3
Mode                        : Joint stereo
Mode extension              : MS Stereo
Codec ID                    : 55
Codec ID/Hint               : MP3
Duration                    : 1h 18mn
Bit rate mode               : Variable
Bit rate                    : 121 Kbps
Channel(s)                  : 2 channels
Sampling rate               : 44.1 KHz
Compression mode            : Lossy
Delay relative to video     : 8ms
Stream size                 : 67.7 MiB (13%)
Alignment                   : Split accross interleaves
Interleave, duration        : 40 ms (1.00 video frame)
Interleave, preload duratio : 500 ms
download

Kód: Vybrat vše

http://bitster.cz/file/20aab2/Bojovnici_z_Los_Angeles_Streetfighter_-1985--avi
Obrázek

Kód: Vybrat vše

http://datoid.cz/?p=143827  
warup
Navigátor
Navigátor
Příspěvky: 1320
Registrován: 05 zář 2014 21:01
Dal poděkování: 2 poděkování
Dostal poděkování: 1 poděkování

filmy + serialy by upload warup

Příspěvek od warup » 31 říj 2016 20:32

Certova.nevesta.2011.DVDRip.XviD.CZ-LEADERs

Obrázek

info

Kód: Vybrat vše

http://www.csfd.cz/film/264860-certova-nevesta/prehled/
V království, kde král jezdí jen na lovy, prosí netrpělivá královna svatou Kryšpínu o miminko. Když jí dojde trpělivost, obrátí se na čerta, žijícího nedaleko ve starém rozpadlém mlýně a královně se zakrátko narodí holčička. Malá princezna vyrůstá po boku Štěpána, který je synem královniny komorné a časem se do sebe zamilují. Když vyjde najevo, že královna podepsala smlouvu s čertem a princezna se má stát v den svých osmnáctých narozenin Luciperovou nevěstou, uspořádá král ples, kde se má Štěpánka zasnoubit s princem z jiné země a tak uniknout svému osudu. Jedním z nápadníků je i Luciper, kterého však Štěpánka odmítne. Ten ji zakleje do přízraku, zjevujícího se pak každou noc na terasách zámku. Štěpán se ji rozhodne vysvobodit a pustí se do boje proti peklu. Svou odvahou a především silou své lásky vykoná tři úkoly, které mu čert zadá. Při posledním úkolu svou chytrostí přemůže dokonce i samotného Lucipera a svou Štěpánku vysvobodí z moci pekla. Oba je pak čeká krásný a pohádkový život.(oficiální text distributora)
kvalita

Kód: Vybrat vše

General
Complete name               : D:\up\Certova.nevesta.2011.DVDRip.XviD.CZ-LEADERs.avi
Format                      : AVI
Format/Info                 : Audio Video Interleave
File size                   : 942 MiB
Duration                    : 1h 36mn
Overall bit rate            : 1 362 Kbps
Writing application         : VirtualDubMod 1.5.10.2 (build 2540/release)
Writing library             : VirtualDubMod build 2540/release

Video
ID                          : 0
Format                      : MPEG-4 Visual
Format profile              : Advanced Simple@L5
Format settings, BVOP       : 1
Format settings, QPel       : No
Format settings, GMC        : No warppoints
Format settings, Matrix     : Custom
Codec ID                    : XVID
Codec ID/Hint               : XviD
Duration                    : 1h 36mn
Bit rate                    : 1 225 Kbps
Width                       : 640 pixels
Height                      : 272 pixels
Display aspect ratio        : 2.35:1
Frame rate                  : 25.000 fps
Color space                 : YUV
Chroma subsampling          : 4:2:0
Bit depth                   : 8 bits
Scan type                   : Progressive
Compression mode            : Lossy
Bits/(Pixel*Frame)          : 0.281
Stream size                 : 847 MiB (90%)
Writing library             : XviD 63

Audio
ID                          : 1
Format                      : MPEG Audio
Format version              : Version 1
Format profile              : Layer 3
Mode                        : Joint stereo
Mode extension              : MS Stereo
Codec ID                    : 55
Codec ID/Hint               : MP3
Duration                    : 1h 36mn
Bit rate mode               : Constant
Bit rate                    : 128 Kbps
Channel(s)                  : 2 channels
Sampling rate               : 48.0 KHz
Compression mode            : Lossy
Delay relative to video     : 24ms
Stream size                 : 88.5 MiB (9%)
Alignment                   : Aligned on interleaves
Interleave, duration        : 40 ms (1.00 video frame)
Interleave, preload duratio : 504 ms

download

Kód: Vybrat vše

http://bitster.cz/file/c0806b/Certova-nevesta-2011-DVDRip-XviD-CZ-LEADERs-avi
Obrázek

Kód: Vybrat vše

http://datoid.cz/?p=143827  
warup
Navigátor
Navigátor
Příspěvky: 1320
Registrován: 05 zář 2014 21:01
Dal poděkování: 2 poděkování
Dostal poděkování: 1 poděkování

filmy + serialy by upload warup

Příspěvek od warup » 01 lis 2016 13:29

cesta-do-ameriky-cz-dabing-komedie-romanticky-usa-1988-pres-MultiLoad.cz

Obrázek

info

Kód: Vybrat vše

http://www.csfd.cz/film/5577-cesta-do-ameriky/prehled/
Král komedie EDDIE MURPHY se v tomto zábavném filmu stává zhýčkaným a sebevědomým africkým princem, který přichází do Ameriky, aby si tu našel nevěstu. V doprovodu svého přítele (Arsenio Hall) si Murphy záhy najde práci, byt a nové prátele i nepřátele a samozřejmě se dostane do spousty malérů. Murphy i Hall jsou ve svých rolích skvělí a rozhodně by Vám už kvůli nim tahle komedie neměla uniknout!(oficiální text distributora)
kvalita

Kód: Vybrat vše

General
Complete name               : D:\up\cesta-do-ameriky-cz-dabing-komedie-romanticky-usa-1988-pres-MultiLoad.cz.avi.opdownload
Format                      : AVI
Format/Info                 : Audio Video Interleave
Format profile              : OpenDML
File size                   : 1.31 GiB
Duration                    : 1h 52mn
Overall bit rate            : 1 671 Kbps

Video
ID                          : 0
Format                      : xvid
Codec ID                    : xvid
Duration                    : 1h 52mn
Bit rate                    : 1 496 Kbps
Width                       : 720 pixels
Height                      : 576 pixels
Display aspect ratio        : 16:9
Frame rate                  : 25.000 fps
Standard                    : PAL
Bits/(Pixel*Frame)          : 0.144
Stream size                 : 1.17 GiB (90%)

Audio
ID                          : 1
Format                      : MPEG Audio
Format version              : Version 1
Format profile              : Layer 3
Mode                        : Joint stereo
Codec ID                    : 55
Codec ID/Hint               : MP3
Duration                    : 1h 52mn
Bit rate mode               : Constant
Bit rate                    : 160 Kbps
Channel(s)                  : 2 channels
Sampling rate               : 44.1 KHz
Compression mode            : Lossy
Stream size                 : 128 MiB (10%)
Alignment                   : Aligned on interleaves
Interleave, duration        : 26 ms (0.65 video frame)
Writing library             : LAME3.98.2
download

Kód: Vybrat vše

http://bitster.cz/file/2a6988/cesta-do-ameriky-cz-dabing-komedie-romanticky-usa-1988-pres-MultiLoad-cz-avi-opdownload
Obrázek

Kód: Vybrat vše

http://datoid.cz/?p=143827  
warup
Navigátor
Navigátor
Příspěvky: 1320
Registrován: 05 zář 2014 21:01
Dal poděkování: 2 poděkování
Dostal poděkování: 1 poděkování

filmy + serialy by upload warup

Příspěvek od warup » 01 lis 2016 14:07

Hrdina-ulice-avi-.cz

Obrázek

info

Kód: Vybrat vše

http://www.csfd.cz/film/286874-hrdina-ulice/prehled/
Chlapec z Brooklynu se stane svědkem brutální vraždy své matky a čím je starší, tím je posedlejší nalezením vraha. Přes den je tichým premiantem ve škole, v noci samozvaným hrdinou. Jenže, co to vlastně znamená být skutečný hrdina?
Sean Donovan byl jen školák, když se jeho rodina stala obětí přepadení, které ho připravilo o matku a z jeho otce učinilo trosku. O mnoho let později si na hrůznou událost sedmnáctiletý Sean stále pamatuje a nehodlá se s ní smiřovat. Pravidelně navštěvuje místní oddělení policie a prohlíží fotky zločinců v naději, že najde tvář muže, který vzal jeho matce život. Zatímco jeho otec propadá alkoholismu, tráví Sean noci obcházením těch nejtemnějších zákoutí města a plánuje pomstu. Když se Sean málem stane obětí drogového dealera, poslechne premiant své pudové instinkty a konečně ze sebe vypustí vztek, který se v něm už od dětství hromadil. Detektiv Teresa Ames z oddělení vražd se dozvídá o řádění a chce tomu učinit přítrž. Je možné, že ten tichý mladík, kterého vídá přes den, je onen samozvaný bojovník, kterého se snaží dostat v noci?(HBO Europe)
kvalita

Kód: Vybrat vše

General
Complete name               : D:\up\Hrdina-ulice-avi-.cz.avi
Format                      : AVI
Format/Info                 : Audio Video Interleave
File size                   : 198 MiB
Duration                    : 1h 32mn
Overall bit rate            : 300 Kbps
Writing application         : VirtualDubMod 1.5.10.3 | www.virtualdub-fr.org || (build 2550/release)
Writing library             : VirtualDubMod build 2550/release

Video
ID                          : 0
Format                      : MPEG-4 Visual
Format profile              : Advanced Simple@L5
Format settings, BVOP       : 2
Format settings, QPel       : No
Format settings, GMC        : No warppoints
Format settings, Matrix     : Default (H.263)
Codec ID                    : XVID
Codec ID/Hint               : XviD
Duration                    : 1h 32mn
Bit rate                    : 87.0 Kbps
Width                       : 1 280 pixels
Height                      : 536 pixels
Display aspect ratio        : 2.40:1
Frame rate                  : 25.000 fps
Color space                 : YUV
Chroma subsampling          : 4:2:0
Bit depth                   : 8 bits
Scan type                   : Progressive
Compression mode            : Lossy
Bits/(Pixel*Frame)          : 0.005
Stream size                 : 57.6 MiB (29%)
Writing library             : XviD 1.2.1 (UTC 2008-12-04)

Audio
ID                          : 1
Format                      : AC-3
Format/Info                 : Audio Coding 3
Mode extension              : CM (complete main)
Format settings, Endianness : Big
Codec ID                    : 2000
Duration                    : 1h 32mn
Bit rate mode               : Constant
Bit rate                    : 192 Kbps
Channel(s)                  : 2 channels
Channel positions           : Front: L R
Sampling rate               : 44.1 KHz
Compression mode            : Lossy
Stream size                 : 127 MiB (64%)
Alignment                   : Split accross interleaves
download

Kód: Vybrat vše

http://bitster.cz/file/22f706/Hrdina-ulice-avi--cz-avi
Obrázek

Kód: Vybrat vše

http://datoid.cz/?p=143827  
warup
Navigátor
Navigátor
Příspěvky: 1320
Registrován: 05 zář 2014 21:01
Dal poděkování: 2 poděkování
Dostal poděkování: 1 poděkování

filmy + serialy by upload warup

Příspěvek od warup » 01 lis 2016 14:17

Kobra 11 S03E03 - Stopařka

Obrázek

info

Kód: Vybrat vše

http://www.csfd.cz/film/112550-kobra-11/prehled/
Ich revírom je diaľnica, ich tempo vražedné, ich súpermi sú zlodeji áut, vrahovia, vydierači...
Hlavnými hrdinami azda najúspešnejšieho nemeckého akčného krimiseriálu vôbec, sú dvaja skvelo zohratí policajní dôstojníci fiktívneho kriminálneho oddelenia diaľničnej polície. V úplne prvých častiach seriálu tento tím tvorili komisári Frank Stolte (Johannes Brandrup) a Ingo Fischer (Rainer Strecker), no už v tretej epizóde vstúpil do deja dnes už služobne najstarší - a zjavne i najvytrvalejší a najodolnejší - komisár Semir Gerkhan (Erdogan Atalay) a nahradil Inga, ktorého zastrelili v akcii. O ďalších sedem epizód nahradil jeho partnera Franka, v podstate bez vysvetlenia, drsný komisár André Fux (Mark Keller), ktorý tragicky zahynul na konci tretej série pri nasadení na Malorke, keď sa po zásahu harpúnou zrútil do Stredozemného mora. jeho telo sa však nikdy nenašlo.

Od pilotného filmu k štvrtej sérii sa novým Semirovým partnerom stal komisár Tom Kranich (René Steinke), s ktorým – s menšou prestávkou – vytvoril nerozlučnú dvojicu viac ako sedem rokov! Na začiatku siedmej série dostal Semir nového partnera, pretože Tom sa po tragickej smrti svojej tehotnej priateľky pri výbuchu bomby, ktorú im do auta nastražil drogový díler a ktorá vlastne mala zabiť jeho, psychicky zrútil a od svojho náročného zamestnania si potreboval oddýchnuť, na neurčito… Jeho nástupcom sa stal mladý dynamický komisár Jan Richter (Christian Oliver), ktorý sa k diaľničnej polícii nechal preveliť z oddelenia krádeží. Na konci ôsmej série sa Jan z deja vyparil, vysvetlenie jeho zmiznutia i tentoraz absentovalo… Na začiatku deviatej série však Semir vyhľadal Toma a požiadal ho o pomoc pri vyšetrovaní aktuálneho prípadu – bol totiž jediný, kto poznal tvár bombového atentátnika, ktorého považovali za mŕtveho a ktorého dovtedy nik nedokázal spoľahlivo identifikovať. A hoci Tom pôvodne plánoval po uzavretí tohto prípadu svoju prácu definitívne zavesiť na klinec, rozhodol sa napokon pre pravý opak – vrátil sa k diaľničnej polícii a znovu sa stal Semirovým partnerom. Toto rozhodnutie sa však v konečnom dôsledku pre oboch ukázalo ako tragické, ba priam osudové - na konci desiatej série totiž Toma zastrelili...

Od jedenástej série sa prázdne miesto po Semirovom boku snažil zaplniť skúsený komisár Chris Ritter (Gedeon Burkhard), pracujúci dlhé roky v utajení, ktorý však len po dvoch sériách tragicky zahynul pri pokuse o záchranu bývalej priateľky. Od trinástej série sa tak novým Semirovým partnerom stal mladý komisár Ben Jäger (Tom Beck)!(oficiální text distributora)
kvalita

Kód: Vybrat vše

General
Complete name               : D:\up\Kobra 11 S03E03 - Stopařka.avi
Format                      : AVI
Format/Info                 : Audio Video Interleave
File size                   : 348 MiB
Duration                    : 45mn 19s
Overall bit rate mode       : Variable
Overall bit rate            : 1 074 Kbps
Writing application         : VirtualDubMod 1.5.10.2 (build 2540/release)
Writing library             : VirtualDubMod build 2540/release

Video
ID                          : 0
Format                      : MPEG-4 Visual
Format profile              : Simple@L0
Format settings, BVOP       : No
Format settings, QPel       : No
Format settings, GMC        : No warppoints
Format settings, Matrix     : Default (H.263)
Codec ID                    : XVID
Codec ID/Hint               : XviD
Duration                    : 45mn 19s
Bit rate                    : 936 Kbps
Width                       : 512 pixels
Height                      : 384 pixels
Display aspect ratio        : 4:3
Frame rate                  : 25.000 fps
Color space                 : YUV
Chroma subsampling          : 4:2:0
Bit depth                   : 8 bits
Scan type                   : Progressive
Compression mode            : Lossy
Bits/(Pixel*Frame)          : 0.190
Stream size                 : 303 MiB (87%)
Writing library             : XviD 1.0.3 (UTC 2004-12-20)

Audio
ID                          : 1
Format                      : MPEG Audio
Format version              : Version 1
Format profile              : Layer 3
Mode                        : Joint stereo
Codec ID                    : 55
Codec ID/Hint               : MP3
Duration                    : 45mn 19s
Bit rate mode               : Variable
Bit rate                    : 128 Kbps
Channel(s)                  : 2 channels
Sampling rate               : 48.0 KHz
Compression mode            : Lossy
Stream size                 : 40.6 MiB (12%)
Alignment                   : Aligned on interleaves
Interleave, duration        : 24 ms (0.60 video frame)
Interleave, preload duratio : 478 ms
Writing library             : LAME3.90.
Encoding settings           : -m j -V 4 -q 2 -lowpass 17.6 --abr 128

download

Kód: Vybrat vše

http://bitster.cz/file/404087/Kobra_11_S03E03_-_Stoparka-avi
Obrázek

Kód: Vybrat vše

http://datoid.cz/?p=143827  
warup
Navigátor
Navigátor
Příspěvky: 1320
Registrován: 05 zář 2014 21:01
Dal poděkování: 2 poděkování
Dostal poděkování: 1 poděkování

filmy + serialy by upload warup

Příspěvek od warup » 01 lis 2016 14:38

Kobra 11 S07E02 - Falešné signály

Obrázek

info

Kód: Vybrat vše

http://www.csfd.cz/film/112550-kobra-11/prehled/
Ich revírom je diaľnica, ich tempo vražedné, ich súpermi sú zlodeji áut, vrahovia, vydierači...
Hlavnými hrdinami azda najúspešnejšieho nemeckého akčného krimiseriálu vôbec, sú dvaja skvelo zohratí policajní dôstojníci fiktívneho kriminálneho oddelenia diaľničnej polície. V úplne prvých častiach seriálu tento tím tvorili komisári Frank Stolte (Johannes Brandrup) a Ingo Fischer (Rainer Strecker), no už v tretej epizóde vstúpil do deja dnes už služobne najstarší - a zjavne i najvytrvalejší a najodolnejší - komisár Semir Gerkhan (Erdogan Atalay) a nahradil Inga, ktorého zastrelili v akcii. O ďalších sedem epizód nahradil jeho partnera Franka, v podstate bez vysvetlenia, drsný komisár André Fux (Mark Keller), ktorý tragicky zahynul na konci tretej série pri nasadení na Malorke, keď sa po zásahu harpúnou zrútil do Stredozemného mora. jeho telo sa však nikdy nenašlo.

Od pilotného filmu k štvrtej sérii sa novým Semirovým partnerom stal komisár Tom Kranich (René Steinke), s ktorým – s menšou prestávkou – vytvoril nerozlučnú dvojicu viac ako sedem rokov! Na začiatku siedmej série dostal Semir nového partnera, pretože Tom sa po tragickej smrti svojej tehotnej priateľky pri výbuchu bomby, ktorú im do auta nastražil drogový díler a ktorá vlastne mala zabiť jeho, psychicky zrútil a od svojho náročného zamestnania si potreboval oddýchnuť, na neurčito… Jeho nástupcom sa stal mladý dynamický komisár Jan Richter (Christian Oliver), ktorý sa k diaľničnej polícii nechal preveliť z oddelenia krádeží. Na konci ôsmej série sa Jan z deja vyparil, vysvetlenie jeho zmiznutia i tentoraz absentovalo… Na začiatku deviatej série však Semir vyhľadal Toma a požiadal ho o pomoc pri vyšetrovaní aktuálneho prípadu – bol totiž jediný, kto poznal tvár bombového atentátnika, ktorého považovali za mŕtveho a ktorého dovtedy nik nedokázal spoľahlivo identifikovať. A hoci Tom pôvodne plánoval po uzavretí tohto prípadu svoju prácu definitívne zavesiť na klinec, rozhodol sa napokon pre pravý opak – vrátil sa k diaľničnej polícii a znovu sa stal Semirovým partnerom. Toto rozhodnutie sa však v konečnom dôsledku pre oboch ukázalo ako tragické, ba priam osudové - na konci desiatej série totiž Toma zastrelili...

Od jedenástej série sa prázdne miesto po Semirovom boku snažil zaplniť skúsený komisár Chris Ritter (Gedeon Burkhard), pracujúci dlhé roky v utajení, ktorý však len po dvoch sériách tragicky zahynul pri pokuse o záchranu bývalej priateľky. Od trinástej série sa tak novým Semirovým partnerom stal mladý komisár Ben Jäger (Tom Beck)!(oficiální text distributora)
kvalita

Kód: Vybrat vše

General
Complete name               : D:\up\Kobra 11 S07E02 - Falešné signály.avi
Format                      : AVI
Format/Info                 : Audio Video Interleave
File size                   : 349 MiB
Duration                    : 45mn 27s
Overall bit rate mode       : Variable
Overall bit rate            : 1 072 Kbps
Writing application         : VirtualDubMod 1.5.10.2 (build 2540/release)
Writing library             : VirtualDubMod build 2540/release

Video
ID                          : 0
Format                      : MPEG-4 Visual
Format profile              : Advanced Simple@L5
Format settings, BVOP       : 2
Format settings, QPel       : No
Format settings, GMC        : No warppoints
Format settings, Matrix     : Default (H.263)
Muxing mode                 : Packed bitstream
Codec ID                    : XVID
Codec ID/Hint               : XviD
Duration                    : 45mn 27s
Bit rate                    : 934 Kbps
Width                       : 512 pixels
Height                      : 384 pixels
Display aspect ratio        : 4:3
Frame rate                  : 25.000 fps
Color space                 : YUV
Chroma subsampling          : 4:2:0
Bit depth                   : 8 bits
Scan type                   : Progressive
Compression mode            : Lossy
Bits/(Pixel*Frame)          : 0.190
Stream size                 : 304 MiB (87%)
Writing library             : XviD 1.2.0.dev47 (UTC 2006-11-01)

Audio
ID                          : 1
Format                      : MPEG Audio
Format version              : Version 1
Format profile              : Layer 3
Mode                        : Joint stereo
Mode extension              : MS Stereo
Codec ID                    : 55
Codec ID/Hint               : MP3
Duration                    : 45mn 27s
Bit rate mode               : Variable
Bit rate                    : 128 Kbps
Channel(s)                  : 2 channels
Sampling rate               : 48.0 KHz
Compression mode            : Lossy
Stream size                 : 40.8 MiB (12%)
Alignment                   : Aligned on interleaves
Interleave, duration        : 24 ms (0.60 video frame)
Interleave, preload duratio : 493 ms
Writing library             : LAME3.90.
Encoding settings           : -m j -V 4 -q 2 -lowpass 17.6 --abr 128
download

Kód: Vybrat vše

http://bitster.cz/file/f58bad/Kobra_11_S07E02_-_Falesne_signaly-avi
Obrázek

Kód: Vybrat vše

http://datoid.cz/?p=143827  
warup
Navigátor
Navigátor
Příspěvky: 1320
Registrován: 05 zář 2014 21:01
Dal poděkování: 2 poděkování
Dostal poděkování: 1 poděkování

filmy + serialy by upload warup

Příspěvek od warup » 01 lis 2016 14:47

Kobra 11 S09E07 - Pašeráci zvířat

Obrázek

info

Kód: Vybrat vše

http://www.csfd.cz/film/112550-kobra-11/prehled/
Ich revírom je diaľnica, ich tempo vražedné, ich súpermi sú zlodeji áut, vrahovia, vydierači...
Hlavnými hrdinami azda najúspešnejšieho nemeckého akčného krimiseriálu vôbec, sú dvaja skvelo zohratí policajní dôstojníci fiktívneho kriminálneho oddelenia diaľničnej polície. V úplne prvých častiach seriálu tento tím tvorili komisári Frank Stolte (Johannes Brandrup) a Ingo Fischer (Rainer Strecker), no už v tretej epizóde vstúpil do deja dnes už služobne najstarší - a zjavne i najvytrvalejší a najodolnejší - komisár Semir Gerkhan (Erdogan Atalay) a nahradil Inga, ktorého zastrelili v akcii. O ďalších sedem epizód nahradil jeho partnera Franka, v podstate bez vysvetlenia, drsný komisár André Fux (Mark Keller), ktorý tragicky zahynul na konci tretej série pri nasadení na Malorke, keď sa po zásahu harpúnou zrútil do Stredozemného mora. jeho telo sa však nikdy nenašlo.

Od pilotného filmu k štvrtej sérii sa novým Semirovým partnerom stal komisár Tom Kranich (René Steinke), s ktorým – s menšou prestávkou – vytvoril nerozlučnú dvojicu viac ako sedem rokov! Na začiatku siedmej série dostal Semir nového partnera, pretože Tom sa po tragickej smrti svojej tehotnej priateľky pri výbuchu bomby, ktorú im do auta nastražil drogový díler a ktorá vlastne mala zabiť jeho, psychicky zrútil a od svojho náročného zamestnania si potreboval oddýchnuť, na neurčito… Jeho nástupcom sa stal mladý dynamický komisár Jan Richter (Christian Oliver), ktorý sa k diaľničnej polícii nechal preveliť z oddelenia krádeží. Na konci ôsmej série sa Jan z deja vyparil, vysvetlenie jeho zmiznutia i tentoraz absentovalo… Na začiatku deviatej série však Semir vyhľadal Toma a požiadal ho o pomoc pri vyšetrovaní aktuálneho prípadu – bol totiž jediný, kto poznal tvár bombového atentátnika, ktorého považovali za mŕtveho a ktorého dovtedy nik nedokázal spoľahlivo identifikovať. A hoci Tom pôvodne plánoval po uzavretí tohto prípadu svoju prácu definitívne zavesiť na klinec, rozhodol sa napokon pre pravý opak – vrátil sa k diaľničnej polícii a znovu sa stal Semirovým partnerom. Toto rozhodnutie sa však v konečnom dôsledku pre oboch ukázalo ako tragické, ba priam osudové - na konci desiatej série totiž Toma zastrelili...

Od jedenástej série sa prázdne miesto po Semirovom boku snažil zaplniť skúsený komisár Chris Ritter (Gedeon Burkhard), pracujúci dlhé roky v utajení, ktorý však len po dvoch sériách tragicky zahynul pri pokuse o záchranu bývalej priateľky. Od trinástej série sa tak novým Semirovým partnerom stal mladý komisár Ben Jäger (Tom Beck)!(oficiální text distributora)
kvalita

Kód: Vybrat vše

General
Complete name               : D:\up\Kobra 11 S09E07 - Pašeráci zvířat.avi
Format                      : AVI
Format/Info                 : Audio Video Interleave
File size                   : 348 MiB
Duration                    : 45mn 26s
Overall bit rate            : 1 070 Kbps
Writing application         : VirtualDubMod 1.5.10.2 (build 2540/release)
Writing library             : VirtualDubMod build 2540/release

Video
ID                          : 0
Format                      : MPEG-4 Visual
Format profile              : Advanced Simple@L5
Format settings, BVOP       : 2
Format settings, QPel       : No
Format settings, GMC        : No warppoints
Format settings, Matrix     : Default (H.263)
Muxing mode                 : Packed bitstream
Codec ID                    : XVID
Codec ID/Hint               : XviD
Duration                    : 45mn 26s
Bit rate                    : 933 Kbps
Width                       : 512 pixels
Height                      : 384 pixels
Display aspect ratio        : 4:3
Frame rate                  : 25.000 fps
Color space                 : YUV
Chroma subsampling          : 4:2:0
Bit depth                   : 8 bits
Scan type                   : Progressive
Compression mode            : Lossy
Bits/(Pixel*Frame)          : 0.190
Stream size                 : 303 MiB (87%)
Writing library             : XviD 1.2.0.dev47 (UTC 2006-11-01)

Audio
ID                          : 1
Format                      : MPEG Audio
Format version              : Version 1
Format profile              : Layer 3
Mode                        : Joint stereo
Mode extension              : MS Stereo
Codec ID                    : 55
Codec ID/Hint               : MP3
Duration                    : 45mn 26s
Bit rate mode               : Constant
Bit rate                    : 128 Kbps
Channel(s)                  : 2 channels
Sampling rate               : 48.0 KHz
Compression mode            : Lossy
Stream size                 : 41.6 MiB (12%)
Alignment                   : Aligned on interleaves
Interleave, duration        : 40 ms (1.00 video frame)
Interleave, preload duratio : 504 ms

download

Kód: Vybrat vše

http://bitster.cz/file/8e8b84/Kobra_11_S09E07_-_Paseraci_zvirat-avi
Obrázek

Kód: Vybrat vše

http://datoid.cz/?p=143827  
Odpovědět

Zpět na „Filmové sbírky“