filmy + serialy by upload warup

Kolekce, které si tvoříte sami

Moderátor: KlopuX

warup
Navigátor
Navigátor
Příspěvky: 1320
Registrován: 05 zář 2014 21:01
Dal poděkování: 2 poděkování
Dostal poděkování: 1 poděkování

filmy + serialy by upload warup

Příspěvek od warup » 01 lis 2016 14:55

Kobra 11 S09E08 - Požární poplach

Obrázek

info

Kód: Vybrat vše

http://www.csfd.cz/film/112550-kobra-11/prehled/
Ich revírom je diaľnica, ich tempo vražedné, ich súpermi sú zlodeji áut, vrahovia, vydierači...
Hlavnými hrdinami azda najúspešnejšieho nemeckého akčného krimiseriálu vôbec, sú dvaja skvelo zohratí policajní dôstojníci fiktívneho kriminálneho oddelenia diaľničnej polície. V úplne prvých častiach seriálu tento tím tvorili komisári Frank Stolte (Johannes Brandrup) a Ingo Fischer (Rainer Strecker), no už v tretej epizóde vstúpil do deja dnes už služobne najstarší - a zjavne i najvytrvalejší a najodolnejší - komisár Semir Gerkhan (Erdogan Atalay) a nahradil Inga, ktorého zastrelili v akcii. O ďalších sedem epizód nahradil jeho partnera Franka, v podstate bez vysvetlenia, drsný komisár André Fux (Mark Keller), ktorý tragicky zahynul na konci tretej série pri nasadení na Malorke, keď sa po zásahu harpúnou zrútil do Stredozemného mora. jeho telo sa však nikdy nenašlo.

Od pilotného filmu k štvrtej sérii sa novým Semirovým partnerom stal komisár Tom Kranich (René Steinke), s ktorým – s menšou prestávkou – vytvoril nerozlučnú dvojicu viac ako sedem rokov! Na začiatku siedmej série dostal Semir nového partnera, pretože Tom sa po tragickej smrti svojej tehotnej priateľky pri výbuchu bomby, ktorú im do auta nastražil drogový díler a ktorá vlastne mala zabiť jeho, psychicky zrútil a od svojho náročného zamestnania si potreboval oddýchnuť, na neurčito… Jeho nástupcom sa stal mladý dynamický komisár Jan Richter (Christian Oliver), ktorý sa k diaľničnej polícii nechal preveliť z oddelenia krádeží. Na konci ôsmej série sa Jan z deja vyparil, vysvetlenie jeho zmiznutia i tentoraz absentovalo… Na začiatku deviatej série však Semir vyhľadal Toma a požiadal ho o pomoc pri vyšetrovaní aktuálneho prípadu – bol totiž jediný, kto poznal tvár bombového atentátnika, ktorého považovali za mŕtveho a ktorého dovtedy nik nedokázal spoľahlivo identifikovať. A hoci Tom pôvodne plánoval po uzavretí tohto prípadu svoju prácu definitívne zavesiť na klinec, rozhodol sa napokon pre pravý opak – vrátil sa k diaľničnej polícii a znovu sa stal Semirovým partnerom. Toto rozhodnutie sa však v konečnom dôsledku pre oboch ukázalo ako tragické, ba priam osudové - na konci desiatej série totiž Toma zastrelili...

Od jedenástej série sa prázdne miesto po Semirovom boku snažil zaplniť skúsený komisár Chris Ritter (Gedeon Burkhard), pracujúci dlhé roky v utajení, ktorý však len po dvoch sériách tragicky zahynul pri pokuse o záchranu bývalej priateľky. Od trinástej série sa tak novým Semirovým partnerom stal mladý komisár Ben Jäger (Tom Beck)!(oficiální text distributora)
kvalita

Kód: Vybrat vše

General
Complete name               : D:\up\Kobra 11 S09E08 - Požární poplach.avi
Format                      : AVI
Format/Info                 : Audio Video Interleave
File size                   : 349 MiB
Duration                    : 45mn 46s
Overall bit rate            : 1 066 Kbps
Writing application         : VirtualDubMod 1.5.10.2 (build 2540/release)
Writing library             : VirtualDubMod build 2540/release

Video
ID                          : 0
Format                      : MPEG-4 Visual
Format profile              : Advanced Simple@L5
Format settings, BVOP       : 2
Format settings, QPel       : No
Format settings, GMC        : No warppoints
Format settings, Matrix     : Default (H.263)
Muxing mode                 : Packed bitstream
Codec ID                    : XVID
Codec ID/Hint               : XviD
Duration                    : 45mn 46s
Bit rate                    : 928 Kbps
Width                       : 512 pixels
Height                      : 384 pixels
Display aspect ratio        : 4:3
Frame rate                  : 25.000 fps
Color space                 : YUV
Chroma subsampling          : 4:2:0
Bit depth                   : 8 bits
Scan type                   : Progressive
Compression mode            : Lossy
Bits/(Pixel*Frame)          : 0.189
Stream size                 : 304 MiB (87%)
Writing library             : XviD 1.2.0.dev47 (UTC 2006-11-01)

Audio
ID                          : 1
Format                      : MPEG Audio
Format version              : Version 1
Format profile              : Layer 3
Mode                        : Joint stereo
Codec ID                    : 55
Codec ID/Hint               : MP3
Duration                    : 45mn 46s
Bit rate mode               : Constant
Bit rate                    : 128 Kbps
Channel(s)                  : 2 channels
Sampling rate               : 48.0 KHz
Compression mode            : Lossy
Stream size                 : 41.9 MiB (12%)
Alignment                   : Aligned on interleaves
Interleave, duration        : 40 ms (1.00 video frame)
Interleave, preload duratio : 504 ms

download

Kód: Vybrat vše

http://bitster.cz/file/640755/Kobra_11_S09E08_-_Pozarni_poplach-avi
Obrázek

Kód: Vybrat vše

http://datoid.cz/?p=143827  
warup
Navigátor
Navigátor
Příspěvky: 1320
Registrován: 05 zář 2014 21:01
Dal poděkování: 2 poděkování
Dostal poděkování: 1 poděkování

filmy + serialy by upload warup

Příspěvek od warup » 01 lis 2016 15:03

Kobra 11 S09E09 - Vysoké napětí

Obrázek

info

Kód: Vybrat vše

http://www.csfd.cz/film/112550-kobra-11/prehled/
Ich revírom je diaľnica, ich tempo vražedné, ich súpermi sú zlodeji áut, vrahovia, vydierači...
Hlavnými hrdinami azda najúspešnejšieho nemeckého akčného krimiseriálu vôbec, sú dvaja skvelo zohratí policajní dôstojníci fiktívneho kriminálneho oddelenia diaľničnej polície. V úplne prvých častiach seriálu tento tím tvorili komisári Frank Stolte (Johannes Brandrup) a Ingo Fischer (Rainer Strecker), no už v tretej epizóde vstúpil do deja dnes už služobne najstarší - a zjavne i najvytrvalejší a najodolnejší - komisár Semir Gerkhan (Erdogan Atalay) a nahradil Inga, ktorého zastrelili v akcii. O ďalších sedem epizód nahradil jeho partnera Franka, v podstate bez vysvetlenia, drsný komisár André Fux (Mark Keller), ktorý tragicky zahynul na konci tretej série pri nasadení na Malorke, keď sa po zásahu harpúnou zrútil do Stredozemného mora. jeho telo sa však nikdy nenašlo.

Od pilotného filmu k štvrtej sérii sa novým Semirovým partnerom stal komisár Tom Kranich (René Steinke), s ktorým – s menšou prestávkou – vytvoril nerozlučnú dvojicu viac ako sedem rokov! Na začiatku siedmej série dostal Semir nového partnera, pretože Tom sa po tragickej smrti svojej tehotnej priateľky pri výbuchu bomby, ktorú im do auta nastražil drogový díler a ktorá vlastne mala zabiť jeho, psychicky zrútil a od svojho náročného zamestnania si potreboval oddýchnuť, na neurčito… Jeho nástupcom sa stal mladý dynamický komisár Jan Richter (Christian Oliver), ktorý sa k diaľničnej polícii nechal preveliť z oddelenia krádeží. Na konci ôsmej série sa Jan z deja vyparil, vysvetlenie jeho zmiznutia i tentoraz absentovalo… Na začiatku deviatej série však Semir vyhľadal Toma a požiadal ho o pomoc pri vyšetrovaní aktuálneho prípadu – bol totiž jediný, kto poznal tvár bombového atentátnika, ktorého považovali za mŕtveho a ktorého dovtedy nik nedokázal spoľahlivo identifikovať. A hoci Tom pôvodne plánoval po uzavretí tohto prípadu svoju prácu definitívne zavesiť na klinec, rozhodol sa napokon pre pravý opak – vrátil sa k diaľničnej polícii a znovu sa stal Semirovým partnerom. Toto rozhodnutie sa však v konečnom dôsledku pre oboch ukázalo ako tragické, ba priam osudové - na konci desiatej série totiž Toma zastrelili...

Od jedenástej série sa prázdne miesto po Semirovom boku snažil zaplniť skúsený komisár Chris Ritter (Gedeon Burkhard), pracujúci dlhé roky v utajení, ktorý však len po dvoch sériách tragicky zahynul pri pokuse o záchranu bývalej priateľky. Od trinástej série sa tak novým Semirovým partnerom stal mladý komisár Ben Jäger (Tom Beck)!(oficiální text distributora)
kvalita

Kód: Vybrat vše

General
Complete name               : D:\up\Kobra 11 S09E09 - Vysoké napětí.avi
Format                      : AVI
Format/Info                 : Audio Video Interleave
File size                   : 348 MiB
Duration                    : 45mn 31s
Overall bit rate            : 1 068 Kbps
Writing application         : VirtualDubMod 1.5.10.2 (build 2540/release)
Writing library             : VirtualDubMod build 2540/release

Video
ID                          : 0
Format                      : MPEG-4 Visual
Format profile              : Advanced Simple@L5
Format settings, BVOP       : 2
Format settings, QPel       : No
Format settings, GMC        : No warppoints
Format settings, Matrix     : Default (H.263)
Muxing mode                 : Packed bitstream
Codec ID                    : XVID
Codec ID/Hint               : XviD
Duration                    : 45mn 31s
Bit rate                    : 930 Kbps
Width                       : 512 pixels
Height                      : 384 pixels
Display aspect ratio        : 4:3
Frame rate                  : 25.000 fps
Color space                 : YUV
Chroma subsampling          : 4:2:0
Bit depth                   : 8 bits
Scan type                   : Progressive
Compression mode            : Lossy
Bits/(Pixel*Frame)          : 0.189
Stream size                 : 303 MiB (87%)
Writing library             : XviD 1.2.0.dev47 (UTC 2006-11-01)

Audio
ID                          : 1
Format                      : MPEG Audio
Format version              : Version 1
Format profile              : Layer 3
Mode                        : Joint stereo
Codec ID                    : 55
Codec ID/Hint               : MP3
Duration                    : 45mn 30s
Bit rate mode               : Constant
Bit rate                    : 128 Kbps
Channel(s)                  : 2 channels
Sampling rate               : 48.0 KHz
Compression mode            : Lossy
Delay relative to video     : 24ms
Stream size                 : 41.7 MiB (12%)
Alignment                   : Aligned on interleaves
Interleave, duration        : 40 ms (1.00 video frame)
Interleave, preload duratio : 504 ms

download

Kód: Vybrat vše

http://bitster.cz/file/bf9297/Kobra_11_S09E09_-_Vysoke_napeti-avi
Obrázek

Kód: Vybrat vše

http://datoid.cz/?p=143827  
warup
Navigátor
Navigátor
Příspěvky: 1320
Registrován: 05 zář 2014 21:01
Dal poděkování: 2 poděkování
Dostal poděkování: 1 poděkování

filmy + serialy by upload warup

Příspěvek od warup » 01 lis 2016 15:50

Kobra 11 S10E13 - Druhá šance

Obrázek

info

Kód: Vybrat vše

http://www.csfd.cz/film/112550-kobra-11/prehled/
Ich revírom je diaľnica, ich tempo vražedné, ich súpermi sú zlodeji áut, vrahovia, vydierači...
Hlavnými hrdinami azda najúspešnejšieho nemeckého akčného krimiseriálu vôbec, sú dvaja skvelo zohratí policajní dôstojníci fiktívneho kriminálneho oddelenia diaľničnej polície. V úplne prvých častiach seriálu tento tím tvorili komisári Frank Stolte (Johannes Brandrup) a Ingo Fischer (Rainer Strecker), no už v tretej epizóde vstúpil do deja dnes už služobne najstarší - a zjavne i najvytrvalejší a najodolnejší - komisár Semir Gerkhan (Erdogan Atalay) a nahradil Inga, ktorého zastrelili v akcii. O ďalších sedem epizód nahradil jeho partnera Franka, v podstate bez vysvetlenia, drsný komisár André Fux (Mark Keller), ktorý tragicky zahynul na konci tretej série pri nasadení na Malorke, keď sa po zásahu harpúnou zrútil do Stredozemného mora. jeho telo sa však nikdy nenašlo.

Od pilotného filmu k štvrtej sérii sa novým Semirovým partnerom stal komisár Tom Kranich (René Steinke), s ktorým – s menšou prestávkou – vytvoril nerozlučnú dvojicu viac ako sedem rokov! Na začiatku siedmej série dostal Semir nového partnera, pretože Tom sa po tragickej smrti svojej tehotnej priateľky pri výbuchu bomby, ktorú im do auta nastražil drogový díler a ktorá vlastne mala zabiť jeho, psychicky zrútil a od svojho náročného zamestnania si potreboval oddýchnuť, na neurčito… Jeho nástupcom sa stal mladý dynamický komisár Jan Richter (Christian Oliver), ktorý sa k diaľničnej polícii nechal preveliť z oddelenia krádeží. Na konci ôsmej série sa Jan z deja vyparil, vysvetlenie jeho zmiznutia i tentoraz absentovalo… Na začiatku deviatej série však Semir vyhľadal Toma a požiadal ho o pomoc pri vyšetrovaní aktuálneho prípadu – bol totiž jediný, kto poznal tvár bombového atentátnika, ktorého považovali za mŕtveho a ktorého dovtedy nik nedokázal spoľahlivo identifikovať. A hoci Tom pôvodne plánoval po uzavretí tohto prípadu svoju prácu definitívne zavesiť na klinec, rozhodol sa napokon pre pravý opak – vrátil sa k diaľničnej polícii a znovu sa stal Semirovým partnerom. Toto rozhodnutie sa však v konečnom dôsledku pre oboch ukázalo ako tragické, ba priam osudové - na konci desiatej série totiž Toma zastrelili...

Od jedenástej série sa prázdne miesto po Semirovom boku snažil zaplniť skúsený komisár Chris Ritter (Gedeon Burkhard), pracujúci dlhé roky v utajení, ktorý však len po dvoch sériách tragicky zahynul pri pokuse o záchranu bývalej priateľky. Od trinástej série sa tak novým Semirovým partnerom stal mladý komisár Ben Jäger (Tom Beck)!(oficiální text distributora)
kvalita

Kód: Vybrat vše

General
Complete name               : D:\up\Kobra 11 S10E13 - Druhá šance.avi
Format                      : AVI
Format/Info                 : Audio Video Interleave
File size                   : 348 MiB
Duration                    : 45mn 5s
Overall bit rate            : 1 079 Kbps
Writing application         : VirtualDubMod 1.5.10.2 (build 2540/release)
Writing library             : VirtualDubMod build 2540/release

Video
ID                          : 0
Format                      : MPEG-4 Visual
Format profile              : Advanced Simple@L5
Format settings, BVOP       : 2
Format settings, QPel       : No
Format settings, GMC        : No warppoints
Format settings, Matrix     : Default (H.263)
Muxing mode                 : Packed bitstream
Codec ID                    : XVID
Codec ID/Hint               : XviD
Duration                    : 45mn 5s
Bit rate                    : 941 Kbps
Width                       : 512 pixels
Height                      : 384 pixels
Display aspect ratio        : 4:3
Frame rate                  : 25.000 fps
Color space                 : YUV
Chroma subsampling          : 4:2:0
Bit depth                   : 8 bits
Scan type                   : Progressive
Compression mode            : Lossy
Bits/(Pixel*Frame)          : 0.192
Stream size                 : 304 MiB (87%)
Writing library             : XviD 1.2.0.dev47 (UTC 2006-11-01)

Audio
ID                          : 1
Format                      : MPEG Audio
Format version              : Version 1
Format profile              : Layer 3
Mode                        : Joint stereo
Mode extension              : MS Stereo
Codec ID                    : 55
Codec ID/Hint               : MP3
Duration                    : 45mn 5s
Bit rate mode               : Constant
Bit rate                    : 128 Kbps
Channel(s)                  : 2 channels
Sampling rate               : 48.0 KHz
Compression mode            : Lossy
Stream size                 : 41.3 MiB (12%)
Alignment                   : Aligned on interleaves
Interleave, duration        : 40 ms (1.00 video frame)
Interleave, preload duratio : 504 ms

download

Kód: Vybrat vše

http://bitster.cz/file/2ec495/Kobra_11_S10E13_-_Druha_sance-avi
Obrázek

Kód: Vybrat vše

http://datoid.cz/?p=143827  
warup
Navigátor
Navigátor
Příspěvky: 1320
Registrován: 05 zář 2014 21:01
Dal poděkování: 2 poděkování
Dostal poděkování: 1 poděkování

filmy + serialy by upload warup

Příspěvek od warup » 01 lis 2016 16:00

Kobra 11 S10E14 - Drsná podmínka

Obrázek

info

Kód: Vybrat vše

http://www.csfd.cz/film/112550-kobra-11/prehled/
Ich revírom je diaľnica, ich tempo vražedné, ich súpermi sú zlodeji áut, vrahovia, vydierači...
Hlavnými hrdinami azda najúspešnejšieho nemeckého akčného krimiseriálu vôbec, sú dvaja skvelo zohratí policajní dôstojníci fiktívneho kriminálneho oddelenia diaľničnej polície. V úplne prvých častiach seriálu tento tím tvorili komisári Frank Stolte (Johannes Brandrup) a Ingo Fischer (Rainer Strecker), no už v tretej epizóde vstúpil do deja dnes už služobne najstarší - a zjavne i najvytrvalejší a najodolnejší - komisár Semir Gerkhan (Erdogan Atalay) a nahradil Inga, ktorého zastrelili v akcii. O ďalších sedem epizód nahradil jeho partnera Franka, v podstate bez vysvetlenia, drsný komisár André Fux (Mark Keller), ktorý tragicky zahynul na konci tretej série pri nasadení na Malorke, keď sa po zásahu harpúnou zrútil do Stredozemného mora. jeho telo sa však nikdy nenašlo.

Od pilotného filmu k štvrtej sérii sa novým Semirovým partnerom stal komisár Tom Kranich (René Steinke), s ktorým – s menšou prestávkou – vytvoril nerozlučnú dvojicu viac ako sedem rokov! Na začiatku siedmej série dostal Semir nového partnera, pretože Tom sa po tragickej smrti svojej tehotnej priateľky pri výbuchu bomby, ktorú im do auta nastražil drogový díler a ktorá vlastne mala zabiť jeho, psychicky zrútil a od svojho náročného zamestnania si potreboval oddýchnuť, na neurčito… Jeho nástupcom sa stal mladý dynamický komisár Jan Richter (Christian Oliver), ktorý sa k diaľničnej polícii nechal preveliť z oddelenia krádeží. Na konci ôsmej série sa Jan z deja vyparil, vysvetlenie jeho zmiznutia i tentoraz absentovalo… Na začiatku deviatej série však Semir vyhľadal Toma a požiadal ho o pomoc pri vyšetrovaní aktuálneho prípadu – bol totiž jediný, kto poznal tvár bombového atentátnika, ktorého považovali za mŕtveho a ktorého dovtedy nik nedokázal spoľahlivo identifikovať. A hoci Tom pôvodne plánoval po uzavretí tohto prípadu svoju prácu definitívne zavesiť na klinec, rozhodol sa napokon pre pravý opak – vrátil sa k diaľničnej polícii a znovu sa stal Semirovým partnerom. Toto rozhodnutie sa však v konečnom dôsledku pre oboch ukázalo ako tragické, ba priam osudové - na konci desiatej série totiž Toma zastrelili...

Od jedenástej série sa prázdne miesto po Semirovom boku snažil zaplniť skúsený komisár Chris Ritter (Gedeon Burkhard), pracujúci dlhé roky v utajení, ktorý však len po dvoch sériách tragicky zahynul pri pokuse o záchranu bývalej priateľky. Od trinástej série sa tak novým Semirovým partnerom stal mladý komisár Ben Jäger (Tom Beck)!(oficiální text distributora)
kvalita

Kód: Vybrat vše

General
Complete name               : D:\up\Kobra 11 S10E14 - Drsná podmínka.avi
Format                      : AVI
Format/Info                 : Audio Video Interleave
File size                   : 348 MiB
Duration                    : 45mn 20s
Overall bit rate            : 1 073 Kbps
Writing application         : VirtualDubMod 1.5.10.2 (build 2540/release)
Writing library             : VirtualDubMod build 2540/release

Video
ID                          : 0
Format                      : MPEG-4 Visual
Format profile              : Advanced Simple@L5
Format settings, BVOP       : 2
Format settings, QPel       : No
Format settings, GMC        : No warppoints
Format settings, Matrix     : Default (H.263)
Muxing mode                 : Packed bitstream
Codec ID                    : XVID
Codec ID/Hint               : XviD
Duration                    : 45mn 20s
Bit rate                    : 935 Kbps
Width                       : 512 pixels
Height                      : 384 pixels
Display aspect ratio        : 4:3
Frame rate                  : 25.000 fps
Color space                 : YUV
Chroma subsampling          : 4:2:0
Bit depth                   : 8 bits
Scan type                   : Progressive
Compression mode            : Lossy
Bits/(Pixel*Frame)          : 0.190
Stream size                 : 303 MiB (87%)
Writing library             : XviD 1.2.0.dev47 (UTC 2006-11-01)

Audio
ID                          : 1
Format                      : MPEG Audio
Format version              : Version 1
Format profile              : Layer 3
Mode                        : Joint stereo
Mode extension              : MS Stereo
Codec ID                    : 55
Codec ID/Hint               : MP3
Duration                    : 45mn 20s
Bit rate mode               : Constant
Bit rate                    : 128 Kbps
Channel(s)                  : 2 channels
Sampling rate               : 48.0 KHz
Compression mode            : Lossy
Stream size                 : 41.5 MiB (12%)
Alignment                   : Aligned on interleaves
Interleave, duration        : 40 ms (1.00 video frame)
Interleave, preload duratio : 504 ms
download

Kód: Vybrat vše

http://bitster.cz/file/1b1e9c/Kobra_11_S10E14_-_Drsna_podminka-avi
Obrázek

Kód: Vybrat vše

http://datoid.cz/?p=143827  
warup
Navigátor
Navigátor
Příspěvky: 1320
Registrován: 05 zář 2014 21:01
Dal poděkování: 2 poděkování
Dostal poděkování: 1 poděkování

filmy + serialy by upload warup

Příspěvek od warup » 01 lis 2016 16:34

Kobra 11 S13E12 - Sebevražedné komando

Obrázek

info

Kód: Vybrat vše

http://www.csfd.cz/film/112550-kobra-11/prehled/
Ich revírom je diaľnica, ich tempo vražedné, ich súpermi sú zlodeji áut, vrahovia, vydierači...
Hlavnými hrdinami azda najúspešnejšieho nemeckého akčného krimiseriálu vôbec, sú dvaja skvelo zohratí policajní dôstojníci fiktívneho kriminálneho oddelenia diaľničnej polície. V úplne prvých častiach seriálu tento tím tvorili komisári Frank Stolte (Johannes Brandrup) a Ingo Fischer (Rainer Strecker), no už v tretej epizóde vstúpil do deja dnes už služobne najstarší - a zjavne i najvytrvalejší a najodolnejší - komisár Semir Gerkhan (Erdogan Atalay) a nahradil Inga, ktorého zastrelili v akcii. O ďalších sedem epizód nahradil jeho partnera Franka, v podstate bez vysvetlenia, drsný komisár André Fux (Mark Keller), ktorý tragicky zahynul na konci tretej série pri nasadení na Malorke, keď sa po zásahu harpúnou zrútil do Stredozemného mora. jeho telo sa však nikdy nenašlo.

Od pilotného filmu k štvrtej sérii sa novým Semirovým partnerom stal komisár Tom Kranich (René Steinke), s ktorým – s menšou prestávkou – vytvoril nerozlučnú dvojicu viac ako sedem rokov! Na začiatku siedmej série dostal Semir nového partnera, pretože Tom sa po tragickej smrti svojej tehotnej priateľky pri výbuchu bomby, ktorú im do auta nastražil drogový díler a ktorá vlastne mala zabiť jeho, psychicky zrútil a od svojho náročného zamestnania si potreboval oddýchnuť, na neurčito… Jeho nástupcom sa stal mladý dynamický komisár Jan Richter (Christian Oliver), ktorý sa k diaľničnej polícii nechal preveliť z oddelenia krádeží. Na konci ôsmej série sa Jan z deja vyparil, vysvetlenie jeho zmiznutia i tentoraz absentovalo… Na začiatku deviatej série však Semir vyhľadal Toma a požiadal ho o pomoc pri vyšetrovaní aktuálneho prípadu – bol totiž jediný, kto poznal tvár bombového atentátnika, ktorého považovali za mŕtveho a ktorého dovtedy nik nedokázal spoľahlivo identifikovať. A hoci Tom pôvodne plánoval po uzavretí tohto prípadu svoju prácu definitívne zavesiť na klinec, rozhodol sa napokon pre pravý opak – vrátil sa k diaľničnej polícii a znovu sa stal Semirovým partnerom. Toto rozhodnutie sa však v konečnom dôsledku pre oboch ukázalo ako tragické, ba priam osudové - na konci desiatej série totiž Toma zastrelili...

Od jedenástej série sa prázdne miesto po Semirovom boku snažil zaplniť skúsený komisár Chris Ritter (Gedeon Burkhard), pracujúci dlhé roky v utajení, ktorý však len po dvoch sériách tragicky zahynul pri pokuse o záchranu bývalej priateľky. Od trinástej série sa tak novým Semirovým partnerom stal mladý komisár Ben Jäger (Tom Beck)!(oficiální text distributora)
kvalita

Kód: Vybrat vše

General
Complete name               : D:\up\Kobra 11 S13E12 - Sebevražedné komando.avi
Format                      : AVI
Format/Info                 : Audio Video Interleave
File size                   : 349 MiB
Duration                    : 45mn 54s
Overall bit rate            : 1 062 Kbps
Writing application         : VirtualDubMod 1.5.10.2 (build 2542/release)
Writing library             : VirtualDubMod build 2542/release

Video
ID                          : 0
Format                      : MPEG-4 Visual
Format profile              : Advanced Simple@L5
Format settings, BVOP       : 2
Format settings, QPel       : No
Format settings, GMC        : No warppoints
Format settings, Matrix     : Default (MPEG)
Codec ID                    : XVID
Codec ID/Hint               : XviD
Duration                    : 45mn 54s
Bit rate                    : 861 Kbps
Width                       : 640 pixels
Height                      : 352 pixels
Display aspect ratio        : 16:9
Frame rate                  : 25.000 fps
Color space                 : YUV
Chroma subsampling          : 4:2:0
Bit depth                   : 8 bits
Scan type                   : Progressive
Compression mode            : Lossy
Bits/(Pixel*Frame)          : 0.153
Stream size                 : 283 MiB (81%)
Writing library             : XviD 1.2.1 (UTC 2008-12-04)

Audio
ID                          : 1
Format                      : MPEG Audio
Format version              : Version 1
Format profile              : Layer 2
Codec ID                    : 50
Duration                    : 45mn 54s
Bit rate mode               : Constant
Bit rate                    : 192 Kbps
Channel(s)                  : 2 channels
Sampling rate               : 48.0 KHz
Compression mode            : Lossy
Stream size                 : 63.0 MiB (18%)
Alignment                   : Aligned on interleaves
Interleave, duration        : 40 ms (1.00 video frame)
Interleave, preload duratio : 504 ms
download

Kód: Vybrat vše

http://bitster.cz/file/a4dfd4/Kobra_11_S13E12_-_Sebevrazedne_komando-avi
Obrázek

Kód: Vybrat vše

http://datoid.cz/?p=143827  
warup
Navigátor
Navigátor
Příspěvky: 1320
Registrován: 05 zář 2014 21:01
Dal poděkování: 2 poděkování
Dostal poděkování: 1 poděkování

filmy + serialy by upload warup

Příspěvek od warup » 01 lis 2016 17:44

dalši dily kobry 11

Kód: Vybrat vše

http://bitster.cz/file/3ea562/Kobra_11_S13E14_-_Spiknuti-avi
http://bitster.cz/file/51fa31/Kobra_11_S15E09_-_Ztracena_minulost-avi
http://bitster.cz/file/47dc4f/Kobra_11_S17E02_-_Prachy_vladnou_svetu-avi
http://bitster.cz/file/534d43/Kobra_11_S17E06_-_Iluzionista-avi
Obrázek

Kód: Vybrat vše

http://datoid.cz/?p=143827  
warup
Navigátor
Navigátor
Příspěvky: 1320
Registrován: 05 zář 2014 21:01
Dal poděkování: 2 poděkování
Dostal poděkování: 1 poděkování

filmy + serialy by upload warup

Příspěvek od warup » 01 lis 2016 19:00

Utek z Alcatrazu - Escape from Alcatraz.cz

Obrázek

info

Kód: Vybrat vše

http://www.csfd.cz/film/8381-utek-z-alcatrazu/prehled/
Tento fascinující thriller Vás zavede do jednoho z nejbezpečnějších a nejstřeženějších vězení světa - Alcatrazu. Odsud ještě nikdy nikdo neuprchl... Brzy se to však jednomu podaří! Frank Morris utekl už z několika vězení a nyní je odvezen do nejobávanějšího a nejlépe hlídaného vězení, na Alcatraz. Toto vězení je stará nedobytná pevnost na skalnatém ostrově, obklopená mořem. Brzy po příjezdu začne Frankovi docházet, na jaké místo se dostal. Zavolá si ho k sobě ředitel věznice, aby mu vysvětlil, jaká má nebo spíše nemá práva: Může mluvit, pracovat a může mít dvakrát měsíčně návštěvu. Frank se postupně seznamuje s ostatními vězni, od chvíle, kdy poznal Alcatraz, myslí na útěk a začíná se chystat na jeho realizaci. Připojí se k němu další tři vězňové a po důkladné přípravě se společně vydají na cestu za svobodou. Film natočený podle skutečného příběhu.(oficiální text distributora)
kvalita

Kód: Vybrat vše

General
Complete name               : D:\up\Utek z Alcatrazu - Escape from Alcatraz.cz.avi
Format                      : AVI
Format/Info                 : Audio Video Interleave
File size                   : 758 MiB
Duration                    : 1h 46mn
Overall bit rate            : 993 Kbps
Writing application         : VirtualDubMod 1.5.4.1 (build 2066/release)
Writing library             : VirtualDubMod build 2066/release

Video
ID                          : 0
Format                      : MPEG-4 Visual
Format profile              : Advanced Simple@L5
Format settings, BVOP       : 2
Format settings, QPel       : No
Format settings, GMC        : No warppoints
Format settings, Matrix     : Default (H.263)
Codec ID                    : XVID
Codec ID/Hint               : XviD
Duration                    : 1h 46mn
Bit rate                    : 727 Kbps
Width                       : 640 pixels
Height                      : 272 pixels
Display aspect ratio        : 2.35:1
Frame rate                  : 25.000 fps
Color space                 : YUV
Chroma subsampling          : 4:2:0
Bit depth                   : 8 bits
Scan type                   : Progressive
Compression mode            : Lossy
Bits/(Pixel*Frame)          : 0.167
Stream size                 : 555 MiB (73%)
Writing library             : XviD 1.2.0.dev47 (UTC 2006-11-01)

Audio
ID                          : 1
Format                      : AC-3
Format/Info                 : Audio Coding 3
Mode extension              : CM (complete main)
Format settings, Endianness : Big
Codec ID                    : 2000
Duration                    : 1h 46mn
Bit rate mode               : Constant
Bit rate                    : 256 Kbps
Channel(s)                  : 2 channels
Channel positions           : Front: L R
Sampling rate               : 48.0 KHz
Compression mode            : Lossy
Stream size                 : 195 MiB (26%)
Alignment                   : Split accross interleaves
Interleave, duration        : 40 ms (1.00 video frame)
Interleave, preload duratio : 500 ms
download

Kód: Vybrat vše

http://bitster.cz/file/2e8af6/Utek_z_Alcatrazu_-_Escape_from_Alcatraz-cz-avi
Obrázek

Kód: Vybrat vše

http://datoid.cz/?p=143827  
warup
Navigátor
Navigátor
Příspěvky: 1320
Registrován: 05 zář 2014 21:01
Dal poděkování: 2 poděkování
Dostal poděkování: 1 poděkování

filmy + serialy by upload warup

Příspěvek od warup » 07 lis 2016 16:49

1x13.Výzva k akci (Call to Action)

Kód: Vybrat vše

http://mega.nz/#fm/1NdCwYTI
1x14.Odhodlání (Rebel Resolve)

Kód: Vybrat vše

http://uloz.to/!BX0Q4JV3yK36/1x14-odhodlani-rebel-resolve-avi
Obrázek

Kód: Vybrat vše

http://datoid.cz/?p=143827  
warup
Navigátor
Navigátor
Příspěvky: 1320
Registrován: 05 zář 2014 21:01
Dal poděkování: 2 poděkování
Dostal poděkování: 1 poděkování

filmy + serialy by upload warup

Příspěvek od warup » 15 led 2017 12:17

Svalnatý santa claus

Obrázek

Santa-Claus-1-CZ

Kód: Vybrat vše

http://www.csfd.cz/film/18286-santa-claus/prehled/
Špičkový manažer hračkářské firmy Scott Calvin se nemůže vypořádat s důsledky rozvodu. Navíc rozhodně není prototypem ideálního rodiče pro svého syna. Štědrý den s tatínkem je pro malého Charlieho spíš noční můrou než nejkrásnějším večerem roku. To se ale změní ve chvíli, kdy Santa Clause, který v anglosaských zemích přináší dárky komínem, tragicky uklouzne právě na střeše Calvinova domu. Kdo za něj zaskočí? Pochopitelně nešťastný Scott. Ale to zdaleka není všechno, protože v průběhu příštích měsíců se tatínek pomalu ale jistě začne měnit ve skutečného Santa Clause a konečně si začne rozumět se svým synem...(oficiální text distributora)
General
Complete name : E:\filmy\Santa-Claus-1-CZ.avi
Format : AVI
Format/Info : Audio Video Interleave
File size : 706 MiB
Duration : 1h 34mn
Overall bit rate mode : Variable
Overall bit rate : 1 050 Kbps
Writing application : VirtualDubMod 1.5.4.1 (build 2178/release)
Writing library : VirtualDubMod build 2178/release

Video
ID : 0
Format : MPEG-4 Visual
Format profile : Advanced Simple@L5
Format settings, BVOP : 1
Format settings, QPel : No
Format settings, GMC : No warppoints
Format settings, Matrix : Custom
Codec ID : XVID
Codec ID/Hint : XviD
Duration : 1h 34mn
Bit rate : 919 Kbps
Width : 656 pixels
Height : 496 pixels
Display aspect ratio : 4:3
Frame rate : 25.000 fps
Color space : YUV
Chroma subsampling : 4:2:0
Bit depth : 8 bits
Scan type : Progressive
Compression mode : Lossy
Bits/(Pixel*Frame) : 0.113
Stream size : 618 MiB (87%)
Writing library : XviD 1.2.1 (UTC 2008-12-04)

Audio
ID : 1
Format : MPEG Audio
Format version : Version 1
Format profile : Layer 3
Mode : Joint stereo
Mode extension : MS Stereo
Codec ID : 55
Codec ID/Hint : MP3
Duration : 1h 34mn
Bit rate mode : Variable
Bit rate : 119 Kbps
Nominal bit rate : 128 Kbps
Channel(s) : 2 channels
Sampling rate : 48.0 KHz
Compression mode : Lossy
Stream size : 79.8 MiB (11%)
Alignment : Aligned on interleaves
Interleave, duration : 24 ms (0.60 video frame)
Interleave, preload duratio : 155 ms
Writing library : LAME3.98r
Encoding settings : -m j -V 4 -q 2 -lowpass 17 --abr 128
Language : Czech
download

Kód: Vybrat vše

http://bitster.cz/file/a54e2d/Svalnaty_santa_claus-rar
Obrázek

Kód: Vybrat vše

http://datoid.cz/?p=143827  
Odpovědět

Zpět na „Filmové sbírky“