Vinnetou - Kolekce (17 filmu)(1962-1968)(CZ)

Kolekce, které si tvoříte sami

Moderátor: KlopuX

Odpovědět
balu9
Palubní radista
Palubní radista
Příspěvky: 642
Registrován: 07 pro 2010 18:20
Dostal poděkování: 11 poděkování

Vinnetou - Kolekce (17 filmu)(1962-1968)(CZ)

Příspěvek od balu9 » 06 dub 2015 16:58

Vinnetou - Kolekce (17 filmu)(1962-1968)(CZ)
CZ



Obrázek

Kód: Vybrat vše

http://karel-may.majerco.net/filmove-mayovky/filmy/tabulkovy-prehled/
http://www.csfd.cz/hledat/?q=Vinnetou+

Kód: Vybrat vše

Rok vydání: 1962-1968
Kvalita zvuku: AC3 2.0 , 224 Kbps
Kvalita videa: 480p , MPEG-4 Visual , XviD , 25 fps
Žánr: Western , Dobrodružný
Zoznam filmov v tejto téme:
Poklad na Stříbrném jezeře (1962) : 106 min
Vinnetou (1963) : 97 min
Old Shatterhand (1963) : 116 min
Žut (1964) : 113 min
Vinnetou 2 - Rudý gentleman (1964) : 90 min
Mezi Supy (1964) : 96 min
Poklad Aztéků (1965) : 96 min
Pyramida boha Slunce (1965) : 94 min
Petrolejový princ (1965) : 86 min
Divokým Kurdistánem (1965) : 98 min
Vinnetou 3 - Poslední výstřel (1965) : 89 min
Old Surehand (1965) : 88 min
V říši stříbrného lva (1965) : 89 min
Poklad Inků (1965) : 91 min
Vinnetou a míšenka Apanači (1966) : 86 min
Old Firehand (1966) : 90 min
Vinnetou a Old Shatterhand v údolí smrti (1968) : 86 min
Obsah filmu: ....vid csfd.sk



Format: AVI
Format/Info: Audio Video Interleave
File size: 1.37 GiB
Overall bit rate: 2 284 Kbps
Writing application: VirtualDubMod 1.5.10.2 (build 2542/release)
Writing library: VirtualDubMod build 2542/release

Video
ID: 0
Format: MPEG-4 Visual
Format profile: Advanced Simple@L5
Format settings, BVOP: 1
Format settings, QPel: No
Format settings, GMC: No warppoints
Format settings, Matrix: Default (H.263)
Muxing mode: Packed bitstream
Codec ID: XVID
Codec ID/Hint: XviD
Duration: 1h 25mn
Bit rate: 2 053 Kbps
Width: 720 pixels
Height: 320 pixels
Display aspect ratio: 2.25:1
Frame rate: 25.000 fps
Color space: YUV
Chroma subsampling: 4:2:0
Bit depth: 8 bits
Scan type: Progressive
Compression mode: Lossy
Bits/(Pixel*Frame): 0.356
Stream size: 1.23 GiB (90%)
Writing library: XviD 1.2.1 (UTC 2008-12-04)

Audio
ID: 1
Format: AC-3
Format/Info: Audio Coding 3
Mode extension: CM (complete main)
Codec ID: 2000
Duration: 1h 25mn
Bit rate mode: Constant
Bit rate: 224 Kbps
Channel(s): 2 channels
Channel positions: Front: L R
Sampling rate: 48.0 KHz
Bit depth: 16 bits
Compression mode: Lossy
Stream size: 137 MiB (10%)
Alignment: Split accross interleaves
Interleave, duration: 80 ms (2.00 video frames)
Interleave, preload duration: 500 ms
Language : Czech

Kód: Vybrat vše

http://download.hellshare.cz/01-poklad-na-stribrnem-jezere-1962-dvdrip-xvid-ac3-cz-avi/31360926/
http://download.hellshare.cz/02-vinnetou-1963-dvdrip-xvid-ac3-cz-avi/31348791/
http://download.hellshare.cz/03-old-shatterhand-1964-dvdrip-xvid-ac3-cz-avi/31349692/
http://download.hellshare.cz/04-zut-1964-dvdrip-xvid-ac3-cz-avi/31350498/
http://download.hellshare.cz/05-vinnetou-2-rudy-gentleman-1964-dvdrip-xvid-ac3-cz-avi/31351372/
http://download.hellshare.cz/06-mezi-supy-1964-dvdrip-xvid-ac3-cz-avi/31352213/
http://download.hellshare.cz/07-poklad-azteku-1965-dvdrip-xvid-ac3-cz-avi/31352837/
http://download.hellshare.cz/08-pyramida-boha-slunce-1965-dvdrip-xvid-ac3-cz-avi/31353566/
http://download.hellshare.cz/09-petrolejovy-princ-1965-dvdrip-xvid-ac3-cz-avi/31354280/
http://download.hellshare.cz/12-old-surehand-1965-dvdrip-xvid-ac3-cz-avi/31356770/
http://download.hellshare.cz/11-vinnetou-3-posledni-vystrel-1965-dvdrip-xvid-ac3-cz-avi/31355899/
http://download.hellshare.cz/13-v-risi-stribrneho-lva-1965-dvdrip-xvid-ac3-cz-avi/31357513/
http://download.hellshare.cz/10-divokym-kurdistanem-1965-dvdrip-xvid-ac3-cz-avi/31355098/
http://download.hellshare.cz/14-poklad-inku-1966-dvdrip-xvid-ac3-cz-avi/31358197/
http://download.hellshare.cz/16-old-firehand-1966-dvdrip-xvid-ac3-cz-avi/31359603/
http://download.hellshare.cz/15-misenka-apanaci-1966-dvdrip-xvid-ac3-cz-avi/31358850/
http://download.hellshare.cz/17-udoli-smrti-1968-dvdrip-xvid-ac3-cz-avi/31360299/

Kód: Vybrat vše

http://www.fastshare.cz/4389427/01.poklad.na.stribrnem.jezere.1962.dvdrip.xvid.ac3.cz.avi
http://www.fastshare.cz/4389485/02.vinnetou.1963.dvdrip.xvid.ac3.cz.avi
http://www.fastshare.cz/4389557/03.old.shatterhand.1964.dvdrip.xvid.ac3.cz.avi
http://www.fastshare.cz/4389611/04.zut.1964.dvdrip.xvid.ac3.cz.avi
http://www.fastshare.cz/4389674/05.vinnetou.2-rudy.gentleman.1964.dvdrip.xvid.ac3.cz.avi
http://www.fastshare.cz/4389764/06.mezi.supy.1964.dvdrip.xvid.ac3.cz.avi
http://www.fastshare.cz/4389961/07.poklad.azteku.1965.dvdrip.xvid.ac3.cz.avi
http://www.fastshare.cz/4390187/08.pyramida.boha.slunce.1965.dvdrip.xvid.ac3.cz.avi
http://www.fastshare.cz/4390356/09.petrolejovy.princ.1965.dvdrip.xvid.ac3.cz.avi
http://www.fastshare.cz/4390540/10.divokym.kurdistanem.1965.dvdrip.xvid.ac3.cz.avi
http://www.fastshare.cz/4390675/11.vinnetou.3-posledni.vystrel.1965.dvdrip.xvid.ac3.cz.avi
http://www.fastshare.cz/4390833/12.old.surehand.1965.dvdrip.xvid.ac3.cz.avi
http://www.fastshare.cz/4390966/13.v.risi.stribrneho.lva.1965.dvdrip.xvid.ac3.cz.avi
http://www.fastshare.cz/4391134/14.poklad.inku.1966.dvdrip.xvid.ac3.cz.avi
http://www.fastshare.cz/4391307/15.misenka.apanaci.1966.dvdrip.xvid.ac3.cz.avi
http://www.fastshare.cz/4391669/16.old.firehand.1966.dvdrip.xvid.ac3.cz.avi
http://www.fastshare.cz/4391845/17.udoli.smrti.1968.dvdrip.xvid.ac3.cz.avi

Kód: Vybrat vše

- Pred sťahovaním si overte či sú linky plne funkčné a odpovedajú danej
  velikosti...
- V prípade zistenia nedostatku ma neodkladne kontaktujte!!
- Moje uploady rozbalujte vždy winrarom !!
- Ak Vám vypisuje niektorý part chybu - nutno ho znovu sťiahnuť !!
- Moje uploady sú volne šíritelné na iné fóra aj bez mojho súhlasu !!!
- V prípade záujmu poskytnem linky aj na "PODLA VÁŠHO DOPYTU"
!!!Všetky moje linky sú plne funkčné a mnou preverené!!!
Linky HellShare a FastShare sa dajú kombinovať!!![/size][/color]
Odpovědět

Zpět na „Filmové sbírky“