Filmy na Czshare

Kolekce, které si tvoříte sami

Moderátor: KlopuX

Uživatelský avatar
bibara
Pozorovatel
Pozorovatel
Příspěvky: 28
Registrován: 10 srp 2006 15:33
Dal poděkování: 2 poděkování
Dostal poděkování: 2 poděkování

Filmy na Czshare

Příspěvek od bibara » 31 bře 2007 20:19

Zde budu umistovat linky na filmy, ktere jsem nahral na server czshare.com

reuploady jinam neprovadim!!!

upozornuju, ze zadne dvdripy, popripade Kinoripy nedelam!! vse to je stazene odjinud a hozene na czshare prolepsi download!

vse to jsou dvdripy s ceksym dubbingem, kdyz to bude jinak, vzdu to bude uvedeno u linku :wink:



Splachnutej
DVDRip, CZ
info

Kód: Vybrat vše

http://www.csfd.cz/film/196567-splachnutej-flushed-away/

Kód: Vybrat vše

http://czshare.com/download_file.php?id=70713&file=splasky.avi
Chyt me kdyz to dokazes
DVD, CZ - kvalita dvd ripu neni nejlepsi, ale take neni spatna
info

Kód: Vybrat vše

http://www.csfd.cz/film/8630-chyt-me-kdyz-to-dokazes-catch-me-if-you-can/

Kód: Vybrat vše

http://czshare.com/download_file.php?id=67890&file=Cm.drogerie.part1.rar
http://czshare.com/download_file.php?id=67911&file=Cm.drogerie.part2.rar
http://czshare.com/download_file.php?id=67929&file=Cm.drogerie.part3.rar
Extremni svahy
DVDrip, Cz
info

Kód: Vybrat vše

http://www.csfd.cz/film/221097-extremni-svahy-first-descent/

Kód: Vybrat vše

CD1
http://czshare.com/download_file.php?id=65688&file=es1.part1.rar
http://czshare.com/download_file.php?id=65713&file=es1.part2.rar
part3-dead
CD2
dead

Lords of Dogtown (Legendy z Dogtownu)
DVDrip, EN
info

Kód: Vybrat vše

http://www.csfd.cz/film/116453-lords-of-dogtown/

Kód: Vybrat vše

http://czshare.com/download_file.php?id=61375&file=Lords.of.Dogtown[2005]DvDrip[Eng]_aXXo.avi


300
DVDrip, EN
info

Kód: Vybrat vše

http://www.csfd.cz/film/221337-300/

Kód: Vybrat vše

http://czshare.com/download_file.php?id=59257&file=300.avi
title:
http://czshare.com/download_file.php?id=59258&file=300.srt

pass pro rar archivy:
Heslo k rozbalení archívu: upload_by_bib

infa jeste doplnim :wink:

xKlacekx


Pablo3


Xmax88

AliG InDaHouse
CZdub

Kód: Vybrat vše

http://czshare.com/163468/8wak/Ali_G_InDaHouse_CZdub_war4all.avi
ExisZ

Bulšit
info:

Kód: Vybrat vše

http://www.fdb.cz/film.php?id=32226

Kód: Vybrat vše

http://czshare.com/download_file.php?id=115793&file=Bulsit.avi
-->()jt@<--
Kdo hulí ten umí

Kód: Vybrat vše

http://czshare.com/files/128083/Zgtp/
http://czshare.com/files/128124/UnRb/
http://czshare.com/files/128177/YVN5/
http://czshare.com/files/128001/PP8N/
atparea

8 Míle -

Kód: Vybrat vše

http://czshare.com/143415/1_3Z/8_M_le.avi
Alien vs Predator -

Kód: Vybrat vše

http://czshare.com/144971/9QC1/Alien_vs_Predator.avi
Blade -

Kód: Vybrat vše

http://czshare.com/158866/YfSk/Blade.avi
Hele kámo, kdo tu vaří ? -

Kód: Vybrat vše

http://czshare.com/143603/sda_/Hele_k_mo,_kdo_tu_va__.avi
Jedna ruka netleská -

Kód: Vybrat vše

http://czshare.com/142930/6BR1/L%3A%5C%5CMovies%5C%5CJedna_ruka_netlesk_.avi
Jeho fotr, to je lotr -

Kód: Vybrat vše

http://czshare.com/143141/xL4W/Jeho_fotr,_to_je_lotr.avi
Klik - Život na dálkové ovládání -

Kód: Vybrat vše

http://czshare.com/138951/4MR_/L%3A%5C%5CMovies%5C%5CKlik____ivot_na_d_lkov__ovl_d_n_.avi
Kráčející skála 3 - Spravedlnost -

Kód: Vybrat vše

http://czshare.com/143100/Se_p/Kr__ej_c__sk_la_3.avi
Lovecká sezóna -

Kód: Vybrat vše

http://czshare.com/148499/IO5c/Loveck__sezĂłna.avi
Matrix -

Kód: Vybrat vše

http://czshare.com/138891/zhPv/L%3A%5C%5CMovies%5C%5CMatrix.avi
Next -

Kód: Vybrat vše

http://czshare.com/146649/5H51/Next.avi
Prci, prci, prcičky 6: Spolek Beta -

Kód: Vybrat vše

http://czshare.com/162822/8SVo/Prci,_prci,_prci_ky___Spolek_Beta.avi
Rychle a zběsile 3 - Tokio drift -

Kód: Vybrat vše

http://czshare.com/148541/F4P6/Rychle_a_zb_sile_3___Tokio_Drift.avi
Simpsonovi ve filmu -

Kód: Vybrat vše

http://czshare.com/146703/FJxp/Simpsnovi_ve_Filmu.avi
Smím prosit ? -

Kód: Vybrat vše

http://czshare.com/146183/qfSR/Sm_m_prosit.avi
Underworld Evolution -

Kód: Vybrat vše

http://czshare.com/150560/qG1H/Underworld_Evolution.avi
Zbohatni nebo chcípni -

Kód: Vybrat vše

http://czshare.com/143487/06xX/Zbohatni_nebo_chc_pni.avi
Gympl / 2007
info:

Kód: Vybrat vše

 http://www.csfd.cz/film/222341-gympl/ 

Kód: Vybrat vše

 http://czshare.com/166152/B0kn/gympl_2007_up_by_atap.part1.rar 
http://czshare.com/166197/KVzC/gympl_2007_up_by_atap.part2.rar
pass:

Kód: Vybrat vše

the_atap
Vulturesman

Prci, prci, prcičky: Spolek Beta
DVDRip, CZ

Kód: Vybrat vše

http://czshare.com/158973/YOul/pppspb.avi

profi

Prci, prci, prcičky 5 (Nahá míle)

Kód: Vybrat vše

http://czshare.com/165677/_xAe/prcky5.rar
Téma se pročišťuje System a bibara :)
Naposledy upravil(a) bibara dne 03 kvě 2008 20:44, celkem upraveno 35 x.
last sig
Obrázek
------------------------------------------------
Uživatelský avatar
bibara
Pozorovatel
Pozorovatel
Příspěvky: 28
Registrován: 10 srp 2006 15:33
Dal poděkování: 2 poděkování
Dostal poděkování: 2 poděkování

Příspěvek od bibara » 30 dub 2007 22:15

nevim, proc ti to nechce jit, tak tady alespon nastinim zakladni postup,

1) kliknete v TC na prvni soubor(*.001) a kliknete na Soubor-Sloucit soubory
2) vyberete kam ma vyhodit vysledny soubor
3) udela se to
4) vyslednemu souboru odmazeme koncovku .out (pokud mate i ten soubor crc, tak vam to vykopne rovnou ffac.rar)
5) konkretne u tohohle souboru jeste odevrete rar, zadate heslo pro rozbaleni a mate
:wink:
tak snad to nekomu pomuze
sam jsem to ted zkousel a slo mi to bezproblemu...
zjisti, jetli nemas treba ten disk plny...
last sig
Obrázek
------------------------------------------------
TonyG
Kachna
Kachna
Příspěvky: 1
Registrován: 21 pro 2008 16:07

Re: => Filmy na CZSHARE <=

Příspěvek od TonyG » 21 pro 2008 16:17

Filmy na CZshare (CZ dabing) / Postupně budu přidávat
Sou to dvd ripy v dobré kvalitě čemuž odpovídá i velikost , rary sou bez hesla

Stalingrad (1993)
Obrázek

Kód: Vybrat vše

http://www.csfd.cz/film/26591-stalingrad/

Kód: Vybrat vše

http://czshare.com/458161/2aS7/Stalingrad.part1.rar
http://czshare.com/457402/_2lF/Stalingrad.part2.rar
Osobní strážce / Bodyguard, The (1992)
Obrázek

Kód: Vybrat vše

http://www.csfd.cz/film/4688-osobni-strazce-bodyguard-the/

Kód: Vybrat vše

http://czshare.com/458950/J044/Osobny.strazca.cd1.cz.avi
http://czshare.com/459292/AMYp/Osobny.strazca.cd2.cz.avi
Narozen 4. července / Born on the Fourth of July (1989)
Obrázek

Kód: Vybrat vše

http://www.csfd.cz/film/8751-narozen-4-cervence-born-on-the-fourth-of-july/

Kód: Vybrat vše

http://czshare.com/459326/cET0/born.on.the.fourth.of.july.cd1.avi
http://czshare.com/459604/W0Nk/born.on.the.fourth.of.july.cd2.avi
Le Mans (1971)
Obrázek

Kód: Vybrat vše

http://www.csfd.cz/film/25743-le-mans/

Kód: Vybrat vše

http://czshare.com/459931/8164/LE_MANS.avi
Prichádza Satan! / Omen, The (1976)
Obrázek

Kód: Vybrat vše

http://www.csfd.cz/film/2444-omen-the/

Kód: Vybrat vše

http://czshare.com/460823/l6_D/Omen.avi
Noční můra v Elm Street 1 / Nightmare On Elm Street, A (1984)
Obrázek

Kód: Vybrat vše

http://www.csfd.cz/film/1761-nocni-mura-v-elm-street-nightmare-on-elm-street-a/

Kód: Vybrat vše

http://czshare.com/461174/_yZ4/Nocni_mura_v_Elm_Street_.avi
Přežít / Alive (1993)
Obrázek

Kód: Vybrat vše

http://www.csfd.cz/film/13214-prezit-alive/

Kód: Vybrat vše

http://czshare.com/462889/3Xh8/prezit.cd1.xvid.cz_bbb7.avi
http://czshare.com/463725/7_2b/prezit.cd2.xvid.cz_bbb7.avi
Ohnivá eskadra / Fire Birds (1990)
Obrázek

Kód: Vybrat vše

http://www.csfd.cz/film/11222-ohniva-eskadra-fire-birds/

Kód: Vybrat vše

http://czshare.com/464318/Y9b3/ohniva_eskadra.part1.rar
http://czshare.com/464472/W_Ta/ohniva_eskadra.part2.rar
Kožená tvář III / Leatherface: Texas Chainsaw Massacre III (1990)
Obrázek

Kód: Vybrat vše

http://www.csfd.cz/film/14877-kozena-tvar-iii-kozena-tvar-leatherface-texas-chainsaw-massacre-iii/

Kód: Vybrat vše

http://czshare.com/465592/R9CH/kozena_tvar.part1.rar
http://czshare.com/466537/g_44/kozena_tvar.part2.rar
Noční směna / Graveyard Shift (1990)
Obrázek

Kód: Vybrat vše

http://www.csfd.cz/film/12198-nocni-smena-graveyard-shift/

Kód: Vybrat vše

http://czshare.com/466786/42jE/Nocni_smena.part1.rar
http://czshare.com/466873/4m3a/Nocni_smena.part2.rar
jirado
Kachna
Kachna
Příspěvky: 3
Registrován: 12 čer 2008 19:21

Re: => Madagaskar 2 Cz DVD rip <=

Příspěvek od jirado » 30 kvě 2009 19:49

Tady to dávám na CZShare

Kód: Vybrat vše

http://czshare.com/753083/Rf1D/Madagaskar_2_Utek_do_Afriky_cz.avi

je to plne cesky a v dobre kvalite
p3v4x
Pozorovatel
Pozorovatel
Příspěvky: 41
Registrován: 21 úno 2009 16:40
Dostal poděkování: 1 poděkování

Re: => Filmy na CZSHARE <=

Příspěvek od p3v4x » 28 čer 2009 21:39

Preber si to DVDRip CZ

Obrázek

Analyzuj
Analyze This

Komedie / Krimi
USA, 1999, 103 min

Režie: Harold Ramis
Hrají: Robert De Niro, Billy Crystal, Lisa Kudrow, Chazz Palminteri, Joe Viterelli, Molly Shannon, Bill Macy, Leo Rossi, Neil Pepe, Jimmie Ray Weeks, Bob Cea, William Hill, Michael Guarino Jr., Elizabeth Bracco, Anthony Caso, Tony Ray Rossi, Joseph Rigano, Vinny Vella Jr.

Kód: Vybrat vše

http://www.csfd.cz/film/7566-preber-si-to-analyze-this/
Info o filmu


Paul
Vitti je jedním z nejmocnějších gangsterů v New Yorku. Vyrostl v mafiánském světě a byl dobře připraven převzít moc. Učitelem mu byl jeho náhradní otec (jeho vlasní byl, jak jinak, zastřelen), obávaný gangster jménem Manett. Ale v okamžiku, kdy se má konečně stát hlavou rodiny, začne mít Vitti najednou problémy. Nemůže spát; je neustále duchem nepřítomný a vzdaluje se své manželce i dětem. Jeho žena chce vědět, proč se tak změnil a jeho muži jsou nervózní z jeho znepokojivého chování. Skutečnost je však ještě horší, než kdokoli z jeho blízkých tuší - Vitti má záchvaty paniky a vůbec na tom není psychicky dobře. Kdyby ostatní rodiny zjistily, co se v jeho hlavě děje, jak by ho potom mohly nechat šéfovat? Vitti je prostě případ pro psychiatra. Ben Sobol je rozvedený newyorský psychiatr, který se stará o syna a plánuje, že si brzy vezme svoji snoubenku. Je to hodný člověk a milující otec. Jestli má nějaké starosti, potom pouze se svými rodiči, kteří jsou na jeho vkus příliš zahledění sami do sebe. Není divu, jeho otec je velmi úspěsný, médii vyhledávaný a tudíž poněkud domýšlivý terapeut. Ben je stejně jako on cele oddán své práci. Také proto žije celé dny ve světě lidí, kteří si stále na něco stěžují a nemyslí na nic jiného než na své nemoci. Výsledek: Benův život je dost jednotvárný. Tedy alespoň do doby, než nabourá do Jellyho, osobní strážce Paula Vittiho. Vittiho lidé by všechno diskrétně vyřídili (včetně pojištění), ale Ben se nedá odbýt a vnutí Jellymu svoji vizitku, čímž mezi nimi vzniká vztah, který nemají dva řidiči po nehodě, ale doktor a pacient. Pak už stačí jen málo. Paul Vitti se přiznává svým lidem, že si musí sehnat terapeuta a Jelly mu navrhne Bena Sobola. Vitti Sobola ihned vyhledá a požaduje okamžité a úplné uzdravení. S důrazem na slovo okamžité, protože Vittiho čeká důležitá rada, na které se sejdou bossové mafiánských rodin. Těm musí demonstrovat, že má na to být jejch šéfem. Ben Sobol pochopitelně s podobným pacientem nechce mít nic společného. Plánuje si přece tichou svatbu a mírumilovný rodinný život. Vždycky tak chtěl přeci žít. Ale něco v něm mu říká, že by to mohl být ten nejzajímavější případ, jaký kdy měl. Dokázal by to zvládnout? V tom okamžiku už mu není pomoci. Profesionální zájem nad ním zvítězil a není cesty zpět z analytické pohovky. Jaké rady ale poskytnout člověku, který obvykle řeší své problémy pistolí nebo pytlem cementu?


Kvalita

Kód: Vybrat vše

Preber.si.to.1999.DVDRip.XviD.CZ.avi
Format                           : AVI
Format/Info                      : Audio Video Interleave
File size                        : 700 MiB
Duration                         : 1h 39mn
Overall bit rate                 : 984 Kbps
Writing application              : VirtualDubMod 1.5.4.1 (build 2178/release)
Writing library                  : VirtualDubMod build 2178/release

Video
Format                           : MPEG-4 Visual
Format profile                   : Streaming Video@L1
Format settings, BVOP            : Yes
Format settings, QPel            : No
Format settings, GMC             : No warppoints
Format settings, Matrix          : Custom
Codec ID                         : XVID
Codec ID/Hint                    : XviD
Duration                         : 1h 39mn
Bit rate                         : 871 Kbps
Width                            : 608 pixels
Height                           : 352 pixels
Display aspect ratio             : 16/9
Frame rate                       : 25.000 fps
Resolution                       : 24 bits
Colorimetry                      : 4:2:0
Scan type                        : Progressive
Bits/(Pixel*Frame)               : 0.163
Stream size                      : 619 MiB (88%)
Writing library                  : XviD 1.2.0.dev47 (UTC 2006-11-01)

Audio
Format                           : MPEG Audio
Format version                   : Version 1
Format profile                   : Layer 3
Codec ID                         : 55
Codec ID/Hint                    : MP3
Duration                         : 1h 39mn
Bit rate mode                    : Variable
Bit rate                         : 100 Kbps
Minimum bit rate                 : 128 Kbps
Channel(s)                       : 2 channels
Sampling rate                    : 48.0 KHz
Resolution                       : 16 bits
Video delay                      : 48ms
Stream size                      : 71.4 MiB (10%)
Alignment                        : Split accross interleaves
Interleave, duration             : 24 ms (0.60 video frame)
Interleave, preload duration     : 742 ms
Writing library                  : LAME3.97 
Encoding settings                : ABR
Language                         : Czech
Download

Kód: Vybrat vše

http://czshare.com/files/795426/Mx4_/
Linky bez Phishingu vypadají na příkladu takto:http://czshare.com/files/775041/5y1u/, kde czshare.com/files je základ adresy a další část adresy je z čísel a poslední část adresy je z písmen, občas mezer a čísel.
p3v4x
Pozorovatel
Pozorovatel
Příspěvky: 41
Registrován: 21 úno 2009 16:40
Dostal poděkování: 1 poděkování

Re: => Filmy na CZSHARE <=

Příspěvek od p3v4x » 28 čer 2009 21:40

Norimbersky proces XviD SK DVB-S MnB

Obrázek

Norimberský proces
Nuremberg

Drama / Historický
Kanada / USA, 2000, 2x90 min

Režie: Yves Simoneau
Hrají: Alec Baldwin, Jill Hennessy, Brian Cox, Michael Ironside, Christopher Plummer, Max von Sydow, Christopher Shyer, Matt Craven, Charlotte Gainsbourg, Colm Feore, Herbert Knaup, Christopher Heyerdahl, Robert Joy, Larry Day, Alain Goulem, Mark Ryan

Kód: Vybrat vše

http://www.csfd.cz/film/71574-norimberk-norimbersky-proces-nuremberg/
Info o filmu

Je květen 1945 a Německo leží v troskách, poražené po bezpodmínečné kapitulaci před Spojenci. Hitler spáchal sebevraždu v berlínském bunkru a celý svět volá po spravedlnosti. Pokusu o
vyrovnání se s nacistickými zločiny se ujal americký soudce Robert Jackson, který sestavil Mezinárodní válečný tribunál v Norimberku. Právní základ mu dala tzv. Londýnská charta Spojenců, podle níž má tribunál právo "obviněného, který byl prohlášen vinným, odsoudit k smrti nebo k jinému trestu, který by považoval za spravedlivý". Úkolem tribunálu bylo soudit a potrestat zločiny proti míru, válečné zločiny a zločiny proti lidskosti. Souzeno bylo 22 hlavních válečných zločinců, členů vlády a vrchního velení německé nacistické armády a 7 organizací. Celý proces od příprav soudní síně a stohů materiálů jako podkladů k obžalobám v rozstříleném Norimberku v létě a na podzim roku 1945 až po závěrečný ortel v říjnu 1946 ukazuje film očima hlavního amerického žalobce Roberta Jacksona a říšského maršála Hermanna Göringa. Ten se nejprve pokouší ovládnout průběh soudu, ale pod tíhou svědectví obětí, které přežily, nakonec i pod tíhou faktických čísel a především po zhlédnutí dokumentárních záběrů z koncentračních táborů, které usvědčují nacistické pohlaváry z hyenismu, postupně ztrácí kredit i mezi svými souputníky. Mění se i původní postoj soudce Jacksona, který v rozporu s názorem ruského žalobce Nikitičenka zpočátku odmítá popravy. Po více než 300 dnech jednání, s 5500 dokumenty a 200.000 místopřísežnými prohlášeními, vynese Norimberský tribunál 1. října 1946 dvanáct rozsudků smrti, sedm trestů odnětí svobody a tři zproštění viny. Sám Göring 16. října 1946 několik hodin před popravou spáchá ve své cele sebevraždu. Dvoudílný kanadský film Norimberský proces převzal řadu dialogů přímo ze zápisu soudního jednání a je nejen fascinující rekonstrukcí nejvýznamnějšího a bezprecedentního soudního procesu 20. století, ale nahlíží i do zákulisí politických a osobních zájmů, z nichž už tehdy - těsně po světové katastrofě - bylo patrné budoucí dělení světa na dva protilehlé tábory. Původní záběry z koncentračních táborů jsou zcela autentické a ani po více než půl století neztratily nic ze své otřesnosti.


Kvalita

Norimbersky.proces.CD1.DVB-S.XviD.SK-MnB.

Kód: Vybrat vše

Format                           : AVI
Format/Info                      : Audio Video Interleave
File size                        : 700 MiB
Duration                         : 1h 28mn
Overall bit rate                 : 1 103 Kbps
Writing application              : VirtualDubMod 1.5.10.1 (build 2366/release)
Writing library                  : VirtualDubMod build 2366/release

Video
Format                           : MPEG-4 Visual
Format profile                   : Streaming Video@L1
Format settings, BVOP            : Yes
Format settings, QPel            : No
Format settings, GMC             : No warppoints
Format settings, Matrix          : Default (H.263)
Muxing mode                      : Packed bitstream
Codec ID                         : XVID
Codec ID/Hint                    : XviD
Duration                         : 1h 28mn
Bit rate                         : 966 Kbps
Width                            : 512 pixels
Height                           : 384 pixels
Display aspect ratio             : 4/3
Frame rate                       : 25.000 fps
Resolution                       : 24 bits
Colorimetry                      : 4:2:0
Scan type                        : Progressive
Bits/(Pixel*Frame)               : 0.196
Stream size                      : 612 MiB (88%)
Writing library                  : XviD 1.1.2 (UTC 2006-11-01)

Audio
Format                           : MPEG Audio
Format version                   : Version 1
Format profile                   : Layer 3
Codec ID                         : 55
Codec ID/Hint                    : MP3
Duration                         : 1h 28mn
Bit rate mode                    : Constant
Bit rate                         : 128 Kbps
Channel(s)                       : 2 channels
Sampling rate                    : 48.0 KHz
Resolution                       : 16 bits
Stream size                      : 81.2 MiB (12%)
Alignment                        : Aligned on interleaves
Interleave, duration             : 40 ms (1.00 video frame)
Interleave, preload duration     : 504 ms
Norimbersky.proces.CD2.DVB-S.XviD.SK-MnB.avi

Kód: Vybrat vše

Format                           : AVI
Format/Info                      : Audio Video Interleave
File size                        : 699 MiB
Duration                         : 1h 30mn
Overall bit rate                 : 1 087 Kbps
Writing application              : VirtualDubMod 1.5.10.1 (build 2366/release)
Writing library                  : VirtualDubMod build 2366/release

Video
Format                           : MPEG-4 Visual
Format profile                   : Streaming Video@L1
Format settings, BVOP            : Yes
Format settings, QPel            : No
Format settings, GMC             : No warppoints
Format settings, Matrix          : Default (H.263)
Muxing mode                      : Packed bitstream
Codec ID                         : XVID
Codec ID/Hint                    : XviD
Duration                         : 1h 30mn
Bit rate                         : 949 Kbps
Width                            : 512 pixels
Height                           : 384 pixels
Display aspect ratio             : 4/3
Frame rate                       : 25.000 fps
Resolution                       : 24 bits
Colorimetry                      : 4:2:0
Scan type                        : Progressive
Bits/(Pixel*Frame)               : 0.193
Stream size                      : 611 MiB (87%)
Writing library                  : XviD 1.1.2 (UTC 2006-11-01)

Audio
Format                           : MPEG Audio
Format version                   : Version 1
Format profile                   : Layer 3
Codec ID                         : 55
Codec ID/Hint                    : MP3
Duration                         : 1h 30mn
Bit rate mode                    : Constant
Bit rate                         : 128 Kbps
Channel(s)                       : 2 channels
Sampling rate                    : 48.0 KHz
Resolution                       : 16 bits
Stream size                      : 82.4 MiB (12%)
Alignment                        : Aligned on interleaves
Interleave, duration             : 40 ms (1.00 video frame)
Interleave, preload duration     : 504 ms
Download CD1 + CD2

Kód: Vybrat vše

http://czshare.com/files/796103/9vKX/
http://czshare.com/files/795727/FgUD/
Linky bez Phishingu vypadají na příkladu takto:http://czshare.com/files/775041/5y1u/, kde czshare.com/files je základ adresy a další část adresy je z čísel a poslední část adresy je z písmen, občas mezer a čísel.
p3v4x
Pozorovatel
Pozorovatel
Příspěvky: 41
Registrován: 21 úno 2009 16:40
Dostal poděkování: 1 poděkování

Re: => Filmy na CZSHARE <=

Příspěvek od p3v4x » 28 čer 2009 21:41

Catwoman DVDRip

Obrázek

Catwoman
Catwoman

Akční / Fantasy
USA / Austrálie, 2004, 100 min

Režie: Pitof
Hrají: Halle Berry, Benjamin Bratt, Sharon Stone, Lambert Wilson, Alex Borstein, Michael Massee, Byron Mann, Anne Fletcher, Peter Williams, Peter Wingfield, Ona Grauer, Aaron Douglas, Missy Peregrym, Holly Eglington, Ryan Robbins

Kód: Vybrat vše

http://www.csfd.cz/film/46219-catwoman/
Info o filmu

Ostýchavá a přecitlivělá výtvarnice Patience Philips (Halle Berry) je ženou, která se snad nikdy nepřestane omlouvat za to, že se vůbec narodila. Pracuje jako návrhářka pro Hedare Beauty, gigantickou kosmetickou společnost, přicházející na trh s revolučním výrobkem proti stárnutí. Když Patience náhodou narazí na zlověstné tajemství svého zaměstnavatele, ocitá se náhle uprostřed ohromného spiknutí, které jí následně změní život navždy. Osudovým zvratem se promění na ženu, vládnoucí kočičí silou, rychlostí, hbitostí a zbystřenými smysly. Díky nově získaným dovednostem a kočičí intuici se Patience stane Kočičí ženou (Catwoman), uhlazenou a plíživou bytostí, balancující na tenké hranici mezi dobrem a zlem. Jako správná divoká šelma je nebezpečná, úskočná a nezkrotná. Její nový život, v němž o dobrodružství není nouze, se navíc komplikuje začínajícím vztahem s Tomem Lonem (Benjamin Bratt), policistou, který se zamiloval do Patience, ale zároveň je fascinován tajemnou Kočičí ženou. Ukáže se totiž, že je zodpovědná za řadu zločinů sužujících město.

Kvalita

Kód: Vybrat vše

Format                           : AVI
Format/Info                      : Audio Video Interleave
File size                        : 700 MiB
Duration                         : 1h 39mn
Overall bit rate                 : 979 Kbps
Writing application              : Nandub v1.0rc2
Writing library                  : Nandub build 1853/release

Video
Format                           : MPEG-4 Visual
Format profile                   : Streaming Video@L1
Format settings, BVOP            : Yes
Format settings, QPel            : Yes
Format settings, GMC             : No warppoints
Format settings, Matrix          : Default (H.263)
Muxing mode                      : Packed bitstream
Codec ID                         : XVID
Codec ID/Hint                    : XviD
Duration                         : 1h 39mn
Bit rate                         : 841 Kbps
Width                            : 608 pixels
Height                           : 256 pixels
Display aspect ratio             : 2.35
Frame rate                       : 25.000 fps
Resolution                       : 24 bits
Colorimetry                      : 4:2:0
Scan type                        : Progressive
Bits/(Pixel*Frame)               : 0.216
Stream size                      : 601 MiB (86%)
Writing library                  : XviD 1.1.0 Beta1 (UTC 2005-01-16)

Audio
Format                           : MPEG Audio
Format version                   : Version 1
Format profile                   : Layer 3
Codec ID                         : 55
Codec ID/Hint                    : MP3
Duration                         : 1h 39mn
Bit rate mode                    : Constant
Bit rate                         : 32.0 Kbps
Channel(s)                       : 2 channels
Sampling rate                    : 48.0 KHz
Resolution                       : 16 bits
Stream size                      : 89.7 MiB (13%)
Alignment                        : Aligned on interleaves
Interleave, duration             : 24 ms (0.60 video frame)
Interleave, preload duration     : 480 ms
Download

Kód: Vybrat vše

http://czshare.com/files/794635/7X24/
Linky bez Phishingu vypadají na příkladu takto:http://czshare.com/files/775041/5y1u/, kde czshare.com/files je základ adresy a další část adresy je z čísel a poslední část adresy je z písmen, občas mezer a čísel.
p3v4x
Pozorovatel
Pozorovatel
Příspěvky: 41
Registrován: 21 úno 2009 16:40
Dostal poděkování: 1 poděkování

Re: => Filmy na CZSHARE <=

Příspěvek od p3v4x » 28 čer 2009 21:42

Zaměna DVDRip DiAMOND

Obrázek

Výmena
Trading Places

Komedie
USA, 1983, 111 min

Režie: John Landis
Hrají: Dan Aykroyd, Eddie Murphy, Ralph Bellamy, Don Ameche, Denholm Elliott, Jamie Lee Curtis, Paul Gleason, Frank Oz, James Belushi, Robert Curtis-Brown, Nicholas Guest, John Bedford Lloyd, Giancarlo Esposito, James Eckhouse, Eddie Jones, Bill Cobbs, Philip Bosco, Bryan Clark, Tom Mardirosian

Kód: Vybrat vše

http://www.csfd.cz/film/5590-zamena-trading-places/
Info o filmu

Mladý a úspěšný obchodník s komoditami Louis Winthorpe III a pouliční podvodníček Billy Ray Valentine si ze dne na den musejí vyměnit svá místa, která jim byla dávno určena v jejich životě. To je ale pouhý začátek důmyslných intrik, v jejichž pozadí stojí dva starší namyšlení boháči Randolph a Mortimer. Pro ně je to pouhý "vědecký experiment" v ceně jednoho dolaru. Zato mladý Louis Winthorpe III je zcela pokořen svým nečekaným společenským pádem dolů. Jeho nový zástupce si zase brzy nachází své místo ve světě bohatých. Každá hra má však nejen svá pravidla, ale také slabiny umožňující vzniklou situaci nějak využít...

Kvalita

Kód: Vybrat vše

Format                           : AVI
Format/Info                      : Audio Video Interleave
File size                        : 982 MiB
Duration                         : 1h 51mn
Overall bit rate                 : 1 231 Kbps
Movie name                       : Záměna.Title1.DVDRip
Director                         : Autoelin
Writing application              : Lavf51.19.0
Original source form/Name        : Záměna

Video
Format                           : MPEG-4 Visual
Format profile                   : Simple@L3
Format settings, BVOP            : No
Format settings, QPel            : No
Format settings, GMC             : No warppoints
Format settings, Matrix          : Default (H.263)
Codec ID                         : XVID
Codec ID/Hint                    : XviD
Duration                         : 1h 51mn
Bit rate                         : 1 028 Kbps
Width                            : 672 pixels
Height                           : 384 pixels
Display aspect ratio             : 16/9
Frame rate                       : 25.000 fps
Resolution                       : 24 bits
Colorimetry                      : 4:2:0
Scan type                        : Progressive
Bits/(Pixel*Frame)               : 0.159
Stream size                      : 820 MiB (84%)
Writing library                  : XviD 1.1.2 (UTC 2006-11-01)

Audio
Format                           : AC-3
Format/Info                      : Audio Coding 3
Codec ID                         : 2000
Duration                         : 1h 51mn
Bit rate mode                    : Constant
Bit rate                         : 192 Kbps
Channel(s)                       : 2 channels
Channel positions                : L R
Sampling rate                    : 48.0 KHz
Stream size                      : 153 MiB (16%)
Alignment                        : Aligned on interleaves
Interleave, duration             : 32 ms (0.80 video frame)
Interleave, preload duration     : 32 ms
Download

Kód: Vybrat vše

http://czshare.com/files/790238/I69G/
Linky bez Phishingu vypadají na příkladu takto:http://czshare.com/files/775041/5y1u/, kde czshare.com/files je základ adresy a další část adresy je z čísel a poslední část adresy je z písmen, občas mezer a čísel.
p3v4x
Pozorovatel
Pozorovatel
Příspěvky: 41
Registrován: 21 úno 2009 16:40
Dostal poděkování: 1 poděkování

Re: => Filmy na CZSHARE <=

Příspěvek od p3v4x » 28 čer 2009 21:42

Nez si pro nás příjde DVDRip

Obrázek

Kým si po nás príde
Bucket List, The

Dobrodružný / Komedie / Drama
USA, 2007, 97 min

Režie: Rob Reiner
Hrají: Jack Nicholson, Morgan Freeman, Sean Hayes, Rob Morrow, Alfonso Freeman, Rowena King, Ian Anthony Dale, Noel Gugliemi

Kód: Vybrat vše

http://www.csfd.cz/film/226320-nez-si-pro-nas-prijde-bucket-list-the/
Info o filmu

Dva přátelé, oba ve stadiu nevyléčitelné rakoviny, se rozhodnou utéct z nemocničního oddělení a vydávají se na společnou cestu se seznamem věcí, které by rádi udělali před svou smrtí. Jack Nicholson si kvůli své roli oholil hlavu. Termín americké premiéry je stanoven na 11. ledna 2008. Příběh je velmi podobný německému filmu z roku 1997 Klepání na nebeskou bránu.

Kvalita

Kód: Vybrat vše

Format                           : AVI
Format/Info                      : Audio Video Interleave
File size                        : 702 MiB
Duration                         : 1h 33mn
Overall bit rate                 : 1 053 Kbps
Writing application              : Nandub v1.0rc3
Writing library                  : Nandub build 2079/release

Video
Format                           : MPEG-4 Visual
Format profile                   : Streaming Video@L1
Format settings, BVOP            : Yes
Format settings, QPel            : No
Format settings, GMC             : No warppoints
Format settings, Matrix          : Default (H.263)
Muxing mode                      : Packed bitstream
Codec ID                         : XVID
Codec ID/Hint                    : XviD
Duration                         : 1h 33mn
Bit rate                         : 906 Kbps
Width                            : 592 pixels
Height                           : 320 pixels
Display aspect ratio             : 1.850
Frame rate                       : 25.000 fps
Resolution                       : 24 bits
Colorimetry                      : 4:2:0
Scan type                        : Progressive
Bits/(Pixel*Frame)               : 0.191
Stream size                      : 604 MiB (86%)
Writing library                  : XviD 1.1.2 (UTC 2006-11-01)

Audio
Format                           : MPEG Audio
Codec ID                         : 55
Codec ID/Hint                    : MP3
Duration                         : 1h 33mn
Bit rate                         : 134 Kbps
Channel(s)                       : 2 channels
Sampling rate                    : 48.0 KHz
Stream size                      : 89.8 MiB (13%)
Alignment                        : Split accross interleaves
Interleave, duration             : 24 ms (0.60 video frame)
Interleave, preload duration     : 5620056 ms
Download

Kód: Vybrat vše

http://czshare.com/files/791128/c8AF/
Linky bez Phishingu vypadají na příkladu takto:http://czshare.com/files/775041/5y1u/, kde czshare.com/files je základ adresy a další část adresy je z čísel a poslední část adresy je z písmen, občas mezer a čísel.
p3v4x
Pozorovatel
Pozorovatel
Příspěvky: 41
Registrován: 21 úno 2009 16:40
Dostal poděkování: 1 poděkování

Re: => Filmy na CZSHARE <=

Příspěvek od p3v4x » 28 čer 2009 21:44

Duch DVDRip

Obrázek

Duch
Ghost

Komedie / Romantický / Thriller / Fantasy
USA, 1990, 122 min

Režie: Jerry Zucker
Hrají: Patrick Swayze, Demi Moore, Whoopi Goldberg, Tony Goldwyn, Vincent Schiavelli, Said Faraj

Kód: Vybrat vše

http://www.csfd.cz/film/10199-duch-ghost/
Info o filmu

Lehce komediální melodrama je kombinováno s detektivní zápletkou. Mladý newyorský bankovní úředník Sam (Patrick Swayze) začne žít s výtvarnicí Molly (Demi Moore). Jejich počínající šťastný život je však přerván Samovou násilnou smrtí, když jej na ulici zastřelí neznámý poberta. Ale Sam nemůže milovanou dívku opustit, a tak ji provází životem alespoň jako duch. Ze záhrobí naváže spojení se světem živých prostřednictvím bizarního média, kterým je černoška Oda Mae (Whoopi Goldberg).

Kvalita

Kód: Vybrat vše

Format                           : DivX
Format/Info                      : Hack of AVI
File size                        : 950 MiB
Duration                         : 2h 1mn
Overall bit rate                 : 1 093 Kbps

Video
Format                           : MPEG-4 Visual
Format settings, BVOP            : Yes
Format settings, QPel            : No
Format settings, GMC             : No warppoints
Format settings, Matrix          : Default (H.263)
Muxing mode                      : Packed bitstream
Codec ID                         : DX50
Codec ID/Hint                    : DivX 5
Duration                         : 2h 1mn
Bit rate                         : 955 Kbps
Width                            : 640 pixels
Height                           : 352 pixels
Display aspect ratio             : 16/9
Frame rate                       : 25.000 fps
Resolution                       : 24 bits
Colorimetry                      : 4:2:0
Scan type                        : Progressive
Bits/(Pixel*Frame)               : 0.170
Stream size                      : 830 MiB (87%)
Title                            : Main
Writing library                  : DivX 6.4.0 (UTC 2006-10-03)

Audio
Format                           : MPEG Audio
Format version                   : Version 1
Format profile                   : Layer 3
Codec ID                         : 55
Codec ID/Hint                    : MP3
Duration                         : 2h 1mn
Bit rate mode                    : Constant
Bit rate                         : 128 Kbps
Channel(s)                       : 2 channels
Sampling rate                    : 48.0 KHz
Resolution                       : 16 bits
Stream size                      : 111 MiB (12%)
Alignment                        : Split accross interleaves
Interleave, duration             : 40 ms (1.00 video frame)
Interleave, preload duration     : 500 ms
Title                            : Audio - cs
Writing library                  : LAME3.97 (beta)


Download

Kód: Vybrat vše

http://czshare.com/files/795119/kew6/
Linky bez Phishingu vypadají na příkladu takto:http://czshare.com/files/775041/5y1u/, kde czshare.com/files je základ adresy a další část adresy je z čísel a poslední část adresy je z písmen, občas mezer a čísel.
p3v4x
Pozorovatel
Pozorovatel
Příspěvky: 41
Registrován: 21 úno 2009 16:40
Dostal poděkování: 1 poděkování

Re: => Filmy na CZSHARE <=

Příspěvek od p3v4x » 28 čer 2009 21:45

Lebkouni I DVDRip


Obrázek

Lebkáči
Alien Nation

Krimi / Drama / Sci-Fi
USA, 1988, 91 min

Režie: Graham Baker
Hrají: James Caan, Mandy Patinkin, Terence Stamp, Brian Thompson, Abraham Alvarez, Tom DeFranco, Angela O'Neill, Frank Collison, Mark Murphey, Earl Boen

Kód: Vybrat vše

http://www.csfd.cz/film/18901-lebkouni-alien-nation/
Info o filmu

V roce 1991 v kalifornské poušti Mojave přistane mimozemská kosmická loď, jejímiž pasažéry je geneticky vytvořená mimozemská rasa upravená pro tvrdou práci v extrémních podmínkách. Lidé je nazvou Lebkouni. Po třech letech jsou Lebkouni propuštěni z karantény a asimilují se mezi pozemšťany. V místech kde se usadili, vzniká mezi nimi a lidmi vzájemná nevraživost. Policejní seržant Matthew Sykes (James Can) pracující v lebkounské čtvrti patří mezi ty, kteří nemají Lebkouny dvakrát v lásce. Když však při přestřelce přijde o život, jeho parťák, Sykes je nucen spojit se s lebkounským detektivem Samuelem Franciscem, aby společně dopadli vrahy. Při vzájemné spolupráci Sykes začíná na přistěhovalce měnit názor.

Kvalita

Kód: Vybrat vše

Celý název : Lebkouni.I.1988.DVDrip.cz.avi
Formát : AVI
Formát/Info : Audio Video Interleave
Formát/Family : RIFF
Velikost souboru : 697 MiB
Hrací čas : 1h 25mn
Bit rate : 1144 Kbps
Použitý software : VirtualDubMod 1.5.4.1 (build 2066/release)
Enkódoval : VirtualDubMod build 2066/release

Video #0
Codec : XviD
Codec/Family : MPEG-4
Codec/Info : XviD project
Nastavení kodeku/Pac : No
Nastavení kodeku/BVO : No
Nastavení kodeku/QPe : No
Nastavení kodeku/GMC : 0
Nastavení kodeku/Mat : Default
Hrací čas : 1h 25mn
Bit rate : 992 Kbps
Šířka : 592pixely
Výška : 240pixely
Poměr stran : 2.467
Frame rate : 25.000 fps
Rozlišení : 8 bits
Chroma : 4:2:0
Interlacement : Progressive

Audio #0
Codec : MPEG-1 Audio layer 3
Hrací čas : 1h 25mn
Bit rate : 128 Kbps
Bit rate mode : CBR
Kanál(y) : 2 kanály
Sampling rate : 44.1 KHz
Rozlišení : 16 bits
Enkódoval : BigManiac (new) 
Download

Kód: Vybrat vše

http://czshare.com/files/794294/h34t/
Linky bez Phishingu vypadají na příkladu takto:http://czshare.com/files/775041/5y1u/, kde czshare.com/files je základ adresy a další část adresy je z čísel a poslední část adresy je z písmen, občas mezer a čísel.
p3v4x
Pozorovatel
Pozorovatel
Příspěvky: 41
Registrován: 21 úno 2009 16:40
Dostal poděkování: 1 poděkování

Re: => Filmy na CZSHARE <=

Příspěvek od p3v4x » 28 čer 2009 21:45

Přízraky DVDRip

Obrázek

Komedie / Horor
Nový Zéland / USA, 1996, 110 min (Director's cut: 122 min)

Režie: Peter Jackson
Hrají: Michael J. Fox, Trini Alvarado, Peter Dobson, John Astin, Jeffrey Combs, Dee Wallace, Jake Busey, Chi McBride, Troy Evans, R. Lee Ermey, Melanie Lynskey, Stuart Devenie, Peter Jackson, Charlie McClellan, Billy Jackson, Anthony Ray Parker, Danny Lineham, Elizabeth Hawthorne

Kód: Vybrat vše

http://www.csfd.cz/film/4709-prizraky-frighteners-the/
Info o filmu


Ve městě Fairwater dochází k dalšímu podivnému úmrtí na srdeční selhání. Obětí je sedmatřicetiletý Chuck Hughes. Za čtyři roky již takhle zemřelo přes třicet lidí. Vše začalo po aféře s Johnym Bartlettem, který v záchvatu šílenství zastřelil dvanáct lidí. Byl popraven a odsouzena byla i Patricie Bradleyová, která ho oddaně milovala. Ta ale byla po pěti letech propuštěna a žije ve starém domě s matkou. Na pohřbu Chucka Hughese se objeví Frank Bannister, který se zabývá výzkumem psychoaktivit. Seznámí
se s manželi Rayem a Lucy Lynskeyovými. Oba pozorují podivné přízraky a Frank jim nabídne svoji pomoc...


Kvalita

Přízraky DVDRip CD1

Kód: Vybrat vše

Format                           : AVI
Format/Info                      : Audio Video Interleave
File size                        : 700 MiB
Duration                         : 48mn 46s
Overall bit rate                 : 2 006 Kbps
Writing application              : VirtualDubMod 1.5.4.1 (build 2178/release)
Writing library                  : VirtualDubMod build 2178/release

Video
Format                           : MPEG-4 Visual
Format profile                   : Streaming Video@L1
Format settings, BVOP            : No
Format settings, QPel            : No
Format settings, GMC             : No warppoints
Format settings, Matrix          : Custom
Codec ID                         : XVID
Codec ID/Hint                    : XviD
Duration                         : 48mn 46s
Bit rate                         : 1 871 Kbps
Width                            : 640 pixels
Height                           : 272 pixels
Display aspect ratio             : 2.35
Frame rate                       : 25.000 fps
Resolution                       : 24 bits
Colorimetry                      : 4:2:0
Scan type                        : Progressive
Bits/(Pixel*Frame)               : 0.430
Stream size                      : 653 MiB (93%)
Writing library                  : XviD 1.1.2 (UTC 2006-11-01)

Audio
Format                           : MPEG Audio
Format version                   : Version 1
Format profile                   : Layer 3
Codec ID                         : 55
Codec ID/Hint                    : MP3
Duration                         : 48mn 46s
Bit rate mode                    : Constant
Bit rate                         : 128 Kbps
Minimum bit rate                 : 128 Kbps
Channel(s)                       : 2 channels
Sampling rate                    : 48.0 KHz
Resolution                       : 16 bits
Stream size                      : 44.7 MiB (6%)
Alignment                        : Aligned on interleaves
Interleave, duration             : 80 ms (2.00 video frames)
Interleave, preload duration     : 504 ms
Writing library                  : LAME3.97b
Encoding settings                : CBR
Language                         : Czech / Czech

Přízraky DVDRip CD2

Kód: Vybrat vše

Format                           : AVI
Format/Info                      : Audio Video Interleave
File size                        : 700 MiB
Duration                         : 56mn 40s
Overall bit rate                 : 1 727 Kbps
Writing application              : VirtualDubMod 1.5.4.1 (build 2178/release)
Writing library                  : VirtualDubMod build 2178/release

Video
Format                           : MPEG-4 Visual
Format profile                   : Streaming Video@L1
Format settings, BVOP            : No
Format settings, QPel            : No
Format settings, GMC             : No warppoints
Format settings, Matrix          : Custom
Codec ID                         : XVID
Codec ID/Hint                    : XviD
Duration                         : 56mn 40s
Bit rate                         : 1 592 Kbps
Width                            : 640 pixels
Height                           : 272 pixels
Display aspect ratio             : 2.35
Frame rate                       : 25.000 fps
Resolution                       : 24 bits
Colorimetry                      : 4:2:0
Scan type                        : Progressive
Bits/(Pixel*Frame)               : 0.366
Stream size                      : 645 MiB (92%)
Writing library                  : XviD 1.1.2 (UTC 2006-11-01)

Audio
Format                           : MPEG Audio
Format version                   : Version 1
Format profile                   : Layer 3
Codec ID                         : 55
Codec ID/Hint                    : MP3
Duration                         : 56mn 28s
Bit rate mode                    : Constant
Bit rate                         : 128 Kbps
Channel(s)                       : 2 channels
Sampling rate                    : 48.0 KHz
Resolution                       : 16 bits
Stream size                      : 51.7 MiB (7%)
Alignment                        : Aligned on interleaves
Interleave, duration             : 80 ms (2.01 video frames)
Interleave, preload duration     : 504 ms
Language                         : Czech / Czech

Download CD1 +CD2

Kód: Vybrat vše

http://czshare.com/files/785827/QzEK/
http://czshare.com/files/785397/05Vr/
Linky bez Phishingu vypadají na příkladu takto:http://czshare.com/files/775041/5y1u/, kde czshare.com/files je základ adresy a další část adresy je z čísel a poslední část adresy je z písmen, občas mezer a čísel.
p3v4x
Pozorovatel
Pozorovatel
Příspěvky: 41
Registrován: 21 úno 2009 16:40
Dostal poděkování: 1 poděkování

Re: => Filmy na CZSHARE <=

Příspěvek od p3v4x » 28 čer 2009 21:46

MacGyver: Ztracený poklad Atlantidy DVDRip

Obrázek

Akční / Dobrodružný
USA, 1994, 93 min

Režie: Michael Vejar
Hrají: Richard Dean Anderson, Brian Blessed, Sophie Ward, Christian Burgess, Oliver Ford Davies, Tim Woodward, Kevork Malikyan, Hugh Quarshie

Kód: Vybrat vše

http://www.csfd.cz/film/31578-macgyver-ztraceny-poklad-atlantidy-macgyver-lost-treasure-of-atlantis/
Info o filmu

Dobrodružný snímek - Macgyver (Richard Dean Anderson) spolu s vědcem Atlantisem Atikusem (Brian Blessed) a kolegyní Kelly (Sophie Ward) najdou medailon, který je zároveň klíčem k Solonově truhlici v níž je uložena Pochodeň pravdy. Ta je může zavést k dobrodružství odkrývající tajemství Věže strachu, kde je již po staletí ukrytý poklad Atlantidy. Film je plný nástrach, které Macgyver lehce překonává svými důmyslnými nápady...

Kvalita

Kód: Vybrat vše

Format                           : AVI
Format/Info                      : Audio Video Interleave
File size                        : 808 MiB
Duration                         : 1h 32mn
Overall bit rate                 : 1 219 Kbps
Writing application              : Nandub v1.0rc2
Writing library                  : Nandub build 1853/release

Video
Format                           : MPEG-4 Visual
Format settings, BVOP            : Yes
Format settings, QPel            : No
Format settings, GMC             : No warppoints
Format settings, Matrix          : Default (H.263)
Muxing mode                      : Packed bitstream
Codec ID                         : DX50
Codec ID/Hint                    : DivX 5
Duration                         : 1h 32mn
Bit rate                         : 951 Kbps
Width                            : 640 pixels
Height                           : 448 pixels
Display aspect ratio             : 1.429
Frame rate                       : 25.000 fps
Resolution                       : 24 bits
Colorimetry                      : 4:2:0
Scan type                        : Progressive
Bits/(Pixel*Frame)               : 0.133
Stream size                      : 630 MiB (78%)
Writing library                  : DivX 5.0.4 (UTC 2003-04-17)

Audio
Format                           : MPEG Audio
Format version                   : Version 1
Format profile                   : Layer 3
Codec ID                         : 55
Codec ID/Hint                    : MP3
Duration                         : 1h 32mn
Bit rate mode                    : Constant
Bit rate                         : 256 Kbps
Channel(s)                       : 2 channels
Sampling rate                    : 44.1 KHz
Resolution                       : 16 bits
Video delay                      : 23ms
Stream size                      : 170 MiB (21%)
Alignment                        : Aligned on interleaves
Interleave, duration             : 26 ms (0.65 video frame)
Interleave, preload duration     : 528 ms

Download

Kód: Vybrat vše

http://czshare.com/files/785190/_w5h/
Linky bez Phishingu vypadají na příkladu takto:http://czshare.com/files/775041/5y1u/, kde czshare.com/files je základ adresy a další část adresy je z čísel a poslední část adresy je z písmen, občas mezer a čísel.
p3v4x
Pozorovatel
Pozorovatel
Příspěvky: 41
Registrován: 21 úno 2009 16:40
Dostal poděkování: 1 poděkování

Re: => Filmy na CZSHARE <=

Příspěvek od p3v4x » 28 čer 2009 21:47

Iron Man DVDRip

Obrázek

Animovaný / Akční / Dobrodružný / Fantasy
USA, 2007, 83 min

Režie: Jay Oliva
Hrají: Fred Tatasciore, Marc Worden, Gwendoline Yeo

Kód: Vybrat vše

http://www.csfd.cz/film/227525-iron-man-invincible-iron-man-the/?text=84206
Info o filmu

V tajemném koutu Číny leží dlouho pohřbené město, místo konečného odpočinku kruté dynastie. Je to místo nevyslovitelného zla, jehož temná tajemství měla být časem zapomenuta. Nyní jsou ale znovu odkrývána. Pečeť vězení je rozlomena. Sněhová bouře, Vichr, Požár a Zemětřesení – kvarteto démonických živlů je vypuštěno na svět. Jejich cílem je sesbírat pět kouzelných prstenů, které znovu vzkřísí jejich hrozivého pána k moci. Jen jediná osoba má sílu se jim postavit - IRON MAN. Z vrcholků čínských hor až do hlubin Atlantického oceánu, do srdce aktivní sopky, bude Tony Stark ve svém speciálním brnění, pronásledovat tyto ďábelské bytosti. Bude ale Tonyho super vysoce technologické vybavení stačit k vítězství? Osud, ale nejde obelstít, den Mandarína se blíží...

Kvalita

Kód: Vybrat vše

Format                           : AVI
Format/Info                      : Audio Video Interleave
File size                        : 704 MiB
Duration                         : 1h 19mn
Overall bit rate                 : 1 237 Kbps
Movie name                       : DVD_VOLUME.Title1.DVDRip
Director                         : Woo
Writing application              : Lavf51.19.0
Original source form/Name        : DVD_VOLUME

Video
Format                           : MPEG-4 Visual
Format profile                   : Simple@L3
Format settings, BVOP            : No
Format settings, QPel            : No
Format settings, GMC             : No warppoints
Format settings, Matrix          : Default (H.263)
Codec ID                         : XVID
Codec ID/Hint                    : XviD
Duration                         : 1h 19mn
Bit rate                         : 1 096 Kbps
Width                            : 640 pixels
Height                           : 352 pixels
Display aspect ratio             : 16/9
Frame rate                       : 25.000 fps
Resolution                       : 24 bits
Colorimetry                      : 4:2:0
Scan type                        : Progressive
Bits/(Pixel*Frame)               : 0.195
Stream size                      : 624 MiB (89%)
Writing library                  : XviD 1.1.2 (UTC 2006-11-01)

Audio
Format                           : MPEG Audio
Format version                   : Version 1
Format profile                   : Layer 3
Codec ID                         : 55
Codec ID/Hint                    : MP3
Duration                         : 1h 19mn
Bit rate mode                    : Constant
Bit rate                         : 128 Kbps
Channel(s)                       : 2 channels
Sampling rate                    : 48.0 KHz
Resolution                       : 16 bits
Stream size                      : 72.9 MiB (10%)
Alignment                        : Aligned on interleaves
Interleave, duration             : 24 ms (0.60 video frame)
Download

Kód: Vybrat vše

http://czshare.com/files/784536/m_gn/
Linky bez Phishingu vypadají na příkladu takto:http://czshare.com/files/775041/5y1u/, kde czshare.com/files je základ adresy a další část adresy je z čísel a poslední část adresy je z písmen, občas mezer a čísel.
p3v4x
Pozorovatel
Pozorovatel
Příspěvky: 41
Registrován: 21 úno 2009 16:40
Dostal poděkování: 1 poděkování

Re: => Filmy na CZSHARE <=

Příspěvek od p3v4x » 28 čer 2009 21:49

Velký Průšvih DVDRip

Obrázek

Režie: Barry Sonnenfeld
Hrají: Tim Allen, Rene Russo, Stanley Tucci, Tom Sizemore, Johnny Knoxville, Dennis Farina, Janeane Garofalo, Ben Foster, Zooey Deschanel, Omar Epps, Jason Lee, Patrick Warburton, DJ Qualls, Cullen Douglas, Jon Kasdan, David Koepp, Barry Sonnenfeld, Antoni Corone, Siobhan Fallon, Sofía Vergara, Andy Richter

Kód: Vybrat vše

http://www.csfd.cz/film/15951-velky-prusvih-big-trouble/
Info o filmu

Prepustený novinár, z ktorého sa stal reklamný textár, krásna nešťastná manželka, manžel - zločinec, dvaja gangstri, ktorých prenasleduje smola, dvaja frustrovaní nájomní vrahovia, traja mladiství, ktorí sa
snažia zabiť jeden druhého striekacími pištoľami, dvaja zmätení policajti, dvaja hip-hopoví agenti FBI, okúzľujúca peruánska slúžka, dobromyseľný tulák žijúci na strome a halucinogénna ropucha. A kufrík s bombou, ktorý sa objavuje na tých najneočakávanejších miestach.


Kvalita

Kód: Vybrat vše

Format                           : AVI
Format/Info                      : Audio Video Interleave
File size                        : 698 MiB
Duration                         : 1h 21mn
Overall bit rate                 : 1 196 Kbps
Movie name                       : BIG TROUBLE  -  Velky prusvih
Director                         : A & S
Subject                          : BIG TROUBLE  -  Velky prusvih
Writing application              : VirtualDubMod 1.4.13
Writing library                  : VirtualDub build 14328/release
Copyright                        : A & S

Video
Format                           : MPEG-4 Visual
Format settings, BVOP            : Yes
Format settings, QPel            : No
Format settings, GMC             : No warppoints
Format settings, Matrix          : Default (H.263)
Codec ID                         : DIVX
Codec ID/Info                    : Project Mayo
Codec ID/Hint                    : DivX 4
Duration                         : 1h 21mn
Bit rate                         : 1 054 Kbps
Width                            : 640 pixels
Height                           : 352 pixels
Display aspect ratio             : 16/9
Frame rate                       : 25.000 fps
Resolution                       : 24 bits
Scan type                        : Progressive
Bits/(Pixel*Frame)               : 0.187
Stream size                      : 615 MiB (88%)

Audio
Format                           : MPEG Audio
Format version                   : Version 1
Format profile                   : Layer 3
Codec ID                         : 55
Codec ID/Hint                    : MP3
Duration                         : 1h 21mn
Bit rate mode                    : Variable
Bit rate                         : 129 Kbps
Nominal bit rate                 : 128 Kbps
Channel(s)                       : 2 channels
Sampling rate                    : 48.0 KHz
Resolution                       : 16 bits
Stream size                      : 75.5 MiB (11%)
Alignment                        : Aligned on interleaves
Interleave, duration             : 24 ms (0.60 video frame)
Interleave, preload duration     : 249 ms
Writing library                  : LAME3.93 
Encoding settings                : ABR

Download

Kód: Vybrat vše

http://czshare.com/files/781759/1VI5/
Linky bez Phishingu vypadají na příkladu takto:http://czshare.com/files/775041/5y1u/, kde czshare.com/files je základ adresy a další část adresy je z čísel a poslední část adresy je z písmen, občas mezer a čísel.
Odpovědět

Zpět na „Filmové sbírky“