Filmy na Czshare

Kolekce, které si tvoříte sami

Moderátor: KlopuX

p3v4x
Pozorovatel
Pozorovatel
Příspěvky: 41
Registrován: 21 úno 2009 16:40
Dostal poděkování: 1 poděkování

Re: => Filmy na CZSHARE <=

Příspěvek od p3v4x » 28 čer 2009 21:50

Nebezpecna rychlost DVDRip

Obrázek

Akční / Thriller
USA, 1994, 116 min

Režie: Jan de Bont
Hrají: Keanu Reeves, Dennis Hopper, Sandra Bullock, Joe Morton, Jeff Daniels, Glenn Plummer, Richard Lineback, Beau Starr, John Capodice, Richard Schiff, Beth Grant, Alan Ruck

Kód: Vybrat vše

http://www.csfd.cz/film/13427-nebezpecna-rychlost-speed/
Info o filmu

Nezpomaluj nebo zemřeš! Nejúspěšnější akční film roku 1994! Pevně se držte, běh napínavých scén, odvážných kaskadérských výkonů, neočekávané romance právě začíná, ve filmu, který budete chtít vidět znovu a znovu. Jack Traven, policejní specialista, který je poslán, aby zneškodnil bombu umístěnou pomstychtivým vyděračem na autobus. Situace je velmi vážná, Jack, kterému pomáhá cestující, musí udržovat rychlost autobusu nad 50mph (tj. asi 100 km/h), jinak bomba exploduje. A to není v ulicích Los Angeles vůbec jednoduché. A tak se před námi odvíjí nepřetržitá akce se spoustou překvapení, která Vás nenechá sedět klidně ve Vašich sedadlech.

Kvalita

Kód: Vybrat vše

Format                           : DivX
Format/Info                      : Hack of AVI
File size                        : 1 000 MiB
Duration                         : 1h 51mn
Overall bit rate                 : 1 258 Kbps

Video
Format                           : MPEG-4 Visual
Format settings, BVOP            : Yes
Format settings, QPel            : No
Format settings, GMC             : No warppoints
Format settings, Matrix          : Default (H.263)
Muxing mode                      : Packed bitstream
Codec ID                         : DX50
Codec ID/Hint                    : DivX 5
Duration                         : 1h 51mn
Bit rate                         : 864 Kbps
Width                            : 640 pixels
Height                           : 272 pixels
Display aspect ratio             : 2.35
Frame rate                       : 25.000 fps
Resolution                       : 24 bits
Colorimetry                      : 4:2:0
Scan type                        : Progressive
Bits/(Pixel*Frame)               : 0.199
Stream size                      : 687 MiB (69%)
Title                            : Main
Writing library                  : DivX 6.4.0 (UTC 2006-10-03)

Audio
Format                           : AC-3
Format/Info                      : Audio Coding 3
Codec ID                         : 2000
Duration                         : 1h 51mn
Bit rate mode                    : Constant
Bit rate                         : 384 Kbps
Channel(s)                       : 6 channels
Channel positions                : Front: L C R, Surround: L R, LFE
Sampling rate                    : 48.0 KHz
Stream size                      : 305 MiB (31%)
Alignment                        : Split accross interleaves
Interleave, duration             : 40 ms (1.00 video frame)
Interleave, preload duration     : 500 ms
Title                            : Audio - cs

Download

Kód: Vybrat vše

http://czshare.com/files/781385/xk8V/
Linky bez Phishingu vypadají na příkladu takto:http://czshare.com/files/775041/5y1u/, kde czshare.com/files je základ adresy a další část adresy je z čísel a poslední část adresy je z písmen, občas mezer a čísel.
p3v4x
Pozorovatel
Pozorovatel
Příspěvky: 41
Registrován: 21 úno 2009 16:40
Dostal poděkování: 1 poděkování

Re: => Filmy na CZSHARE <=

Příspěvek od p3v4x » 29 čer 2009 07:33

Slimák DVDRip CZ

Obrázek


Sci-Fi / Horor / Komedie
USA / Kanada, 2006, 92 min

Režie: James Gunn
Hrají: Nathan Fillion, Elizabeth Banks, Michael Rooker, Gregg Henry, Jenna Fischer, Rob Zombie, Dustin Milligan

Kód: Vybrat vše

http://www.csfd.cz/film/216247-slimak-slither/
Info o filmu

Slimák je mixem teroru, černého humoru a překvapivé lidskosti od scénáristy Jamese Gunna, jehož Úsvit mrtvých se stal hitem roku 2004. Wheelsy je obyčejné městečko plné přátelských lidiček, kteří se starají jen o své vlastní problémy. Jenže pod tímto milým povrchem se začínají dít divné věci...

Kvalita

Kód: Vybrat vše

Format                           : AVI
Format/Info                      : Audio Video Interleave
File size                        : 697 MiB
Duration                         : 1h 31mn
Overall bit rate                 : 1 062 Kbps
Writing application              : VirtualDubMod 1.5.10.2 (build 2540/release)
Writing library                  : VirtualDubMod build 2540/release

Video
Format                           : MPEG-4 Visual
Format profile                   : Streaming Video@L1
Format settings, BVOP            : Yes
Format settings, QPel            : No
Format settings, GMC             : No warppoints
Format settings, Matrix          : Default (H.263)
Muxing mode                      : Packed bitstream
Codec ID                         : XVID
Codec ID/Hint                    : XviD
Duration                         : 1h 31mn
Bit rate                         : 924 Kbps
Width                            : 640 pixels
Height                           : 336 pixels
Display aspect ratio             : 1.905
Frame rate                       : 25.000 fps
Resolution                       : 24 bits
Colorimetry                      : 4:2:0
Scan type                        : Progressive
Bits/(Pixel*Frame)               : 0.172
Stream size                      : 606 MiB (87%)
Writing library                  : XviD 1.2.0.dev47 (UTC 2006-11-01)

Audio
Format                           : MPEG Audio
Format version                   : Version 1
Format profile                   : Layer 3
Codec ID                         : 55
Codec ID/Hint                    : MP3
Duration                         : 1h 31mn
Bit rate mode                    : Constant
Bit rate                         : 128 Kbps
Channel(s)                       : 2 channels
Sampling rate                    : 48.0 KHz
Resolution                       : 16 bits
Stream size                      : 84.0 MiB (12%)
Alignment                        : Aligned on interleaves
Interleave, duration             : 40 ms (1.00 video frame)
Interleave, preload duration     : 504 ms
Download

Kód: Vybrat vše

http://czshare.com/files/780941/ljW_/
Linky bez Phishingu vypadají na příkladu takto:http://czshare.com/files/775041/5y1u/, kde czshare.com/files je základ adresy a další část adresy je z čísel a poslední část adresy je z písmen, občas mezer a čísel.
p3v4x
Pozorovatel
Pozorovatel
Příspěvky: 41
Registrován: 21 úno 2009 16:40
Dostal poděkování: 1 poděkování

Re: => Filmy na CZSHARE <=

Příspěvek od p3v4x » 29 čer 2009 07:35

Bestián: Kupředu, zpátky jen krok DVDRip

Obrázek

Blackadder Back and Forth

Komedie / Sci-Fi / Krátkometrážní
Velká Británie, 1999, 33 min

Režie: Paul Weiland
Hrají: Rowan Atkinson, Tony Robinson, Miranda Richardson, Tim McInnerny, Hugh Laurie, Stephen Fry, Rik Mayall, Colin Firth, Kate Moss

Kód: Vybrat vše

http://www.csfd.cz/film/18360-bestian-kupredu-zpatky-jen-krok-blackadder-back-and-forth/
Info


Lord Edmund Bestián (Rowan Atkinson) a Baldrick (Tony Robinson) testují svůj stroj
času. Vydávají se do minulosti pro pár suvenýrů a nakonec se jim podaří změnit minulost. Ocitnou se tak např. v Sherwoodském lese, kde se setkají s Robinem Hoodem nebo u Bitvy u Waterloo.


Kvalita

Obrázek

Download

Kód: Vybrat vše

http://czshare.com/775405/eH3A/bestku.avi
Linky bez Phishingu vypadají na příkladu takto:http://czshare.com/files/775041/5y1u/, kde czshare.com/files je základ adresy a další část adresy je z čísel a poslední část adresy je z písmen, občas mezer a čísel.
Odpovědět

Zpět na „Filmové sbírky“