Vinnetou ( 1 až 16 ) český dabing

Kolekce, které si tvoříte sami

Moderátor: KlopuX

Uživatelský avatar
Novohradecak
Kachna
Kachna
Příspěvky: 12
Registrován: 02 pro 2006 13:59
Kontaktovat uživatele:

Vinnetou ( 1 až 16 ) český dabing

Příspěvek od Novohradecak » 14 úno 2008 18:09

Vinnetou ( 1 až 16 ) český dabing

Hlavní postavy jsou dvě Vinnetou a Old Shatterhand . Oba mají ty nejlepší lidské vlastnosti (upřímnost, čestnost, spolehlivost, statečnost, odvážnost).
Old Shatterhand (běloch) a Vinnetou (indián) se stanou nerozluční přátelé, pokrevní bratři. Old Shatterhand se stává přítelem indiánů, snaží se hájit jejich práva. Poukazuje na špatné a dobré vlastnosti lidí jak indiánů tak i bělochů. Popisuje těžký úděl původního obyvatelstva Ameriky . Přistěhovalci vytlačují Indiány z jejich země. Určují jim, kde mají žít, vraždí je pro zlato.

Obrázek

:arrow: Download : bez hesla u všech dílů :bigups:

Vinnetou 01 - Old Firehand

Velikost: 737 MB
Delka: 1:30:27

Kód: Vybrat vše

http://rapidshare.com/files/40574921/01_-_Old_Firehand_cz.part1.rar.html 
http://rapidshare.com/files/40580401/01_-_Old_Firehand_cz.part2.rar.html 
http://rapidshare.com/files/39859354/01_-_Old_Firehand_cz.part3.rar.html 
http://rapidshare.com/files/40594670/01_-_Old_Firehand_cz.part4.rar.html 
http://rapidshare.com/files/40028619/01_-_Old_Firehand_cz.part5.rar.html 
http://rapidshare.com/files/40037708/01_-_Old_Firehand_cz.part6.rar.html 
http://rapidshare.com/files/40041273/01_-_Old_Firehand_cz.part7.rar.html 
http://rapidshare.com/files/40600201/01_-_Old_Firehand_cz.part8.rar.html 
Vinnetou 02 - Vinnetou

Velikost: 733 MB
Delka: 1:37:02

Kód: Vybrat vše

http://rapidshare.com/files/40047911/02_-_Vinnetou_cz.part1.rar.html 
http://rapidshare.com/files/40051025/02_-_Vinnetou_cz.part2.rar.html 
http://rapidshare.com/files/40192537/02_-_Vinnetou_cz.part3.rar.html 
http://rapidshare.com/files/40198049/02_-_Vinnetou_cz.part4.rar.html 
http://rapidshare.com/files/40198476/02_-_Vinnetou_cz.part5.rar.html 
http://rapidshare.com/files/40206526/02_-_Vinnetou_cz.part6.rar.html 
http://rapidshare.com/files/40206530/02_-_Vinnetou_cz.part7.rar.html 
http://rapidshare.com/files/40052340/02_-_Vinnetou_cz.part8.rar.html 
Vinnetou 03 - Poklad na Stribrnem jezere

Velikost: 735 MB
Delka: 1:46:25

Kód: Vybrat vše

http://rapidshare.com/files/40215242/03_-_Poklad_na_Stribrnem_jezere_cz.part1.rar.html 
http://rapidshare.com/files/40215266/03_-_Poklad_na_Stribrnem_jezere_cz.part2.rar.html 
http://rapidshare.com/files/40224508/03_-_Poklad_na_Stribrnem_jezere_cz.part3.rar.html 
http://rapidshare.com/files/40224513/03_-_Poklad_na_Stribrnem_jezere_cz.part4.rar.html 
http://rapidshare.com/files/40229252/03_-_Poklad_na_Stribrnem_jezere_cz.part5.rar.html 
http://rapidshare.com/files/40387554/03_-_Poklad_na_Stribrnem_jezere_cz.part6.rar.html 
http://rapidshare.com/files/40397296/03_-_Poklad_na_Stribrnem_jezere_cz.part7.rar.html 
http://rapidshare.com/files/40229543/03_-_Poklad_na_Stribrnem_jezere_cz.part8.rar.html 

Vinnetou 04 - Rudý Gentleman

Velikost: 733 MB
Delka: 1:30:09

Kód: Vybrat vše

http://rapidshare.com/files/40404717/04_-_Vinnetou_Rudy_Gentleman_cz.part1.rar.html 
http://rapidshare.com/files/40406035/04_-_Vinnetou_Rudy_Gentleman_cz.part2.rar.html 
http://rapidshare.com/files/40410476/04_-_Vinnetou_Rudy_Gentleman_cz.part3.rar.html 
http://rapidshare.com/files/40413974/04_-_Vinnetou_Rudy_Gentleman_cz.part4.rar.html 
http://rapidshare.com/files/40422520/04_-_Vinnetou_Rudy_Gentleman_cz.part5.rar.html 
http://rapidshare.com/files/40430676/04_-_Vinnetou_Rudy_Gentleman_cz.part6.rar.html 
http://rapidshare.com/files/40430715/04_-_Vinnetou_Rudy_Gentleman_cz.part7.rar.html 
http://rapidshare.com/files/40433120/04_-_Vinnetou_Rudy_Gentleman_cz.part8.rar.html 
Vinnetou 05 - Vinnetou a Old Shatterhand v Údolí smrti

Velikost: 697 MB
Delka: 1:28:15

Kód: Vybrat vše

http://rapidshare.com/files/40436548/05_-_Vinnetou_a_Old_Shatterhand_v_Udoli_smrti_cz.part1.rar.html 
http://rapidshare.com/files/40442659/05_-_Vinnetou_a_Old_Shatterhand_v_Udoli_smrti_cz.part2.rar.html 
http://rapidshare.com/files/40444049/05_-_Vinnetou_a_Old_Shatterhand_v_Udoli_smrti_cz.part3.rar.html 
http://rapidshare.com/files/40447464/05_-_Vinnetou_a_Old_Shatterhand_v_Udoli_smrti_cz.part4.rar.html 
http://rapidshare.com/files/40456803/05_-_Vinnetou_a_Old_Shatterhand_v_Udoli_smrti_cz.part5.rar.html 
http://rapidshare.com/files/40456919/05_-_Vinnetou_a_Old_Shatterhand_v_Udoli_smrti_cz.part6.rar.html 
http://rapidshare.com/files/40460735/05_-_Vinnetou_a_Old_Shatterhand_v_Udoli_smrti_cz.part7.rar.html 
http://rapidshare.com/files/40463863/05_-_Vinnetou_a_Old_Shatterhand_v_Udoli_smrti_cz.part8.rar.html

Vinnetou 06 - Old Shatterhand

Velikost: 697 MB
Delka: 1:53:04

Kód: Vybrat vše

http://rapidshare.com/files/40467732/06_-_Old_Shatterhand_cz.part1.rar.html 
http://rapidshare.com/files/40482112/06_-_Old_Shatterhand_cz.part2.rar.html 
http://rapidshare.com/files/40482149/06_-_Old_Shatterhand_cz.part3.rar.html 
http://rapidshare.com/files/40586886/06_-_Old_Shatterhand_cz.part4.rar.html 
http://rapidshare.com/files/40605449/06_-_Old_Shatterhand_cz.part5.rar.html 
http://rapidshare.com/files/40611104/06_-_Old_Shatterhand_cz.part6.rar.html 
http://rapidshare.com/files/40616132/06_-_Old_Shatterhand_cz.part7.rar.html 
http://rapidshare.com/files/40624881/06_-_Old_Shatterhand_cz.part8.rar.html 

Vinnetou 07 - Vinnetou a míšenka Apanači

Velikost: 720 MB
Delka: 1:24:31

Kód: Vybrat vše

http://rapidshare.com/files/40747111/07_-_Vinnetou_a_misenka_Apanaci_cz.part1.rar.html 
http://rapidshare.com/files/40760506/07_-_Vinnetou_a_misenka_Apanaci_cz.part2.rar.html 
http://rapidshare.com/files/40764484/07_-_Vinnetou_a_misenka_Apanaci_cz.part3.rar.html 
http://rapidshare.com/files/40771166/07_-_Vinnetou_a_misenka_Apanaci_cz.part4.rar.html 
http://rapidshare.com/files/40785133/07_-_Vinnetou_a_misenka_Apanaci_cz.part5.rar.html 
http://rapidshare.com/files/40792481/07_-_Vinnetou_a_misenka_Apanaci_cz.part6.rar.html 
http://rapidshare.com/files/40797012/07_-_Vinnetou_a_misenka_Apanaci_cz.part7.rar.html 
http://rapidshare.com/files/40801660/07_-_Vinnetou_a_misenka_Apanaci_cz.part8.rar.html 


Vinnetou 08 - Old Surehand

Velikost: 734 MB
Delka: 1:26:03

Kód: Vybrat vše

http://rapidshare.com/files/40805939/08_-_Old_Surehand_cz.part1.rar.html 
http://rapidshare.com/files/40811241/08_-_Old_Surehand_cz.part2.rar.html 
http://rapidshare.com/files/40815474/08_-_Old_Surehand_cz.part3.rar.html 
http://rapidshare.com/files/40824853/08_-_Old_Surehand_cz.part4.rar.html 
http://rapidshare.com/files/40925150/08_-_Old_Surehand_cz.part5.rar.html 
http://rapidshare.com/files/40928577/08_-_Old_Surehand_cz.part6.rar.html 
http://rapidshare.com/files/40941770/08_-_Old_Surehand_cz.part7.rar.html 
http://rapidshare.com/files/40818366/08_-_Old_Surehand_cz.part8.rar.html 
Vinnetou 09 - Petrolejový princ

Velikost: 584 MB
Delka: 1:32:25

Kód: Vybrat vše

http://rapidshare.com/files/40973195/09_-_Petrolejovy_princ_cz.part1.rar 
http://rapidshare.com/files/40997512/09_-_Petrolejovy_princ_cz.part2.rar 
http://rapidshare.com/files/41000844/09_-_Petrolejovy_princ_cz.part3.rar 
http://rapidshare.com/files/41125506/09_-_Petrolejovy_princ_cz.part4.rar 
http://rapidshare.com/files/41130192/09_-_Petrolejovy_princ_cz.part5.rar 
http://rapidshare.com/files/41133126/09_-_Petrolejovy_princ_cz.part6.rar 

Vinnetou 10 - Mezi supy

Velikost: 699 MB
Delka: 1:36:04

Kód: Vybrat vše

http://rapidshare.com/files/41137710/10_-_Mezi_supy_cz.part1.rar 
http://rapidshare.com/files/41159543/10_-_Mezi_supy_cz.part2.rar 
http://rapidshare.com/files/41164226/10_-_Mezi_supy_cz.part3.rar 
http://rapidshare.com/files/41355109/10_-_Mezi_supy_cz.part4.rar 
http://rapidshare.com/files/41353651/10_-_Mezi_supy_cz.part5.rar 
http://rapidshare.com/files/42265977/10_-_Mezi_supy_cz.part6.rar 
http://rapidshare.com/files/42269647/10_-_Mezi_supy_cz.part7.rar 
http://rapidshare.com/files/41137944/10_-_Mezi_supy_cz.part8.rar 

Vinnetou 11 - Vinnetou-Poslední výstřel
Velikost: 733 MB
Delka: 1:28:33

Kód: Vybrat vše

http://rapidshare.com/files/42275049/11_-_Vinnetou-Posledni_vystrel_cz.part1.rar 
http://rapidshare.com/files/42279618/11_-_Vinnetou-Posledni_vystrel_cz.part2.rar 
http://rapidshare.com/files/42287129/11_-_Vinnetou-Posledni_vystrel_cz.part3.rar 
http://rapidshare.com/files/42338991/11_-_Vinnetou-Posledni_vystrel_cz.part4.rar 
http://rapidshare.com/files/42343198/11_-_Vinnetou-Posledni_vystrel_cz.part5.rar 
http://rapidshare.com/files/42349239/11_-_Vinnetou-Posledni_vystrel_cz.part6.rar 
http://rapidshare.com/files/42353801/11_-_Vinnetou-Posledni_vystrel_cz.part7.rar 
http://rapidshare.com/files/42472121/11_-_Vinnetou-Posledni_vystrel_cz.part8.rar 

Vinnetou 12 - Zut

Velikost: 1 266 MB
Delka: 1:50:51

Kód: Vybrat vše

http://rapidshare.com/files/66511173/12_-_Zut_reup.part01.rar 
http://rapidshare.com/files/66519090/12_-_Zut_reup.part02.rar 
http://rapidshare.com/files/66524377/12_-_Zut_reup.part03.rar 
http://rapidshare.com/files/66531127/12_-_Zut_reup.part04.rar 
http://rapidshare.com/files/66703312/12_-_Zut_reup.part05.rar 
http://rapidshare.com/files/66717158/12_-_Zut_reup.part06.rar 
http://rapidshare.com/files/66722683/12_-_Zut_reup.part07.rar 
http://rapidshare.com/files/66952910/12_-_Zut_reup.part08.rar 
http://rapidshare.com/files/66957496/12_-_Zut_reup.part09.rar 
http://rapidshare.com/files/66991693/12_-_Zut_reup.part10.rar 
http://rapidshare.com/files/66998950/12_-_Zut_reup.part11.rar 
http://rapidshare.com/files/67005076/12_-_Zut_reup.part12.rar 
http://rapidshare.com/files/67008160/12_-_Zut_reup.part13.rar 


Vinnetou 13 - Divokým Kurdistánem
Velikost: 903 MB
Delka: 1:37:27

Kód: Vybrat vše

http://rapidshare.com/files/44609177/13_-_Divokym_Kurdistanem_cz.part01.rar 
http://rapidshare.com/files/44734423/13_-_Divokym_Kurdistanem_cz.part02.rar 
http://rapidshare.com/files/44729692/13_-_Divokym_Kurdistanem_cz.part03.rar 
http://rapidshare.com/files/44738622/13_-_Divokym_Kurdistanem_cz.part04.rar 
http://rapidshare.com/files/44743626/13_-_Divokym_Kurdistanem_cz.part05.rar 
http://rapidshare.com/files/44970552/13_-_Divokym_Kurdistanem_cz.part06.rar 
http://rapidshare.com/files/44975664/13_-_Divokym_Kurdistanem_cz.part07.rar 
http://rapidshare.com/files/44981284/13_-_Divokym_Kurdistanem_cz.part08.rar 
http://rapidshare.com/files/44988370/13_-_Divokym_Kurdistanem_cz.part09.rar 
http://rapidshare.com/files/44988623/13_-_Divokym_Kurdistanem_cz.part10.rar 
Vinnetou 14 - V říši stříbrného lva

Velikost: 840 MB
Delka: 1:29:38

Kód: Vybrat vše

http://rapidshare.com/files/44992826/14_-_V_risi_stribrneho_lva_cz.part01.rar 
http://rapidshare.com/files/45000152/14_-_V_risi_stribrneho_lva_cz.part02.rar 
http://rapidshare.com/files/45004541/14_-_V_risi_stribrneho_lva_cz.part03.rar 
http://rapidshare.com/files/45016143/14_-_V_risi_stribrneho_lva_cz.part04.rar 
http://rapidshare.com/files/45023087/14_-_V_risi_stribrneho_lva_cz.part05.rar 
http://rapidshare.com/files/45026280/14_-_V_risi_stribrneho_lva_cz.part06.rar 
http://rapidshare.com/files/45127748/14_-_V_risi_stribrneho_lva_cz.part07.rar 
http://rapidshare.com/files/45132981/14_-_V_risi_stribrneho_lva_cz.part08.rar 
http://rapidshare.com/files/45134375/14_-_V_risi_stribrneho_lva_cz.part09.rar 
Vinnetou 15 - Poklad Aztéků

Velikost: 1 110 MB
Delka: 1:35:31

Kód: Vybrat vše

http://rapidshare.com/files/45138930/15_-_Poklad_Azteku_cz.part01.rar 
http://rapidshare.com/files/45145042/15_-_Poklad_Azteku_cz.part02.rar 
http://rapidshare.com/files/45150151/15_-_Poklad_Azteku_cz.part03.rar 
http://rapidshare.com/files/45187602/15_-_Poklad_Azteku_cz.part04.rar 
http://rapidshare.com/files/45195586/15_-_Poklad_Azteku_cz.part05.rar 
http://rapidshare.com/files/45202449/15_-_Poklad_Azteku_cz.part06.rar 
http://rapidshare.com/files/45208339/15_-_Poklad_Azteku_cz.part07.rar 
http://rapidshare.com/files/45327849/15_-_Poklad_Azteku_cz.part08.rar 
http://rapidshare.com/files/45331343/15_-_Poklad_Azteku_cz.part09.rar 
http://rapidshare.com/files/45336058/15_-_Poklad_Azteku_cz.part10.rar 
http://rapidshare.com/files/45340492/15_-_Poklad_Azteku_cz.part11.rar 
http://rapidshare.com/files/45151885/15_-_Poklad_Azteku_cz.part12.rar 

Vinnetou 16 - Pyramida boha slunce

Velikost: 731 MB
Delka: 1:32:52

Kód: Vybrat vše

http://rapidshare.com/files/45344719/16_-_Pyramida_boha_slunce_cz.part1.rar 
http://rapidshare.com/files/45351032/16_-_Pyramida_boha_slunce_cz.part2.rar 
http://rapidshare.com/files/45357408/16_-_Pyramida_boha_slunce_cz.part3.rar 
http://rapidshare.com/files/45363522/16_-_Pyramida_boha_slunce_cz.part4.rar 
http://rapidshare.com/files/45368759/16_-_Pyramida_boha_slunce_cz.part5.rar 
http://rapidshare.com/files/45376425/16_-_Pyramida_boha_slunce_cz.part6.rar 
http://rapidshare.com/files/45380718/16_-_Pyramida_boha_slunce_cz.part7.rar 
http://rapidshare.com/files/45382749/16_-_Pyramida_boha_slunce_cz.part8.rar 
:-P Hezkou podívanou přeje Novohradecak , Vinnetou a Old Shatterhand !!! :choon:

Obrázek
adalv
Pozorovatel
Pozorovatel
Příspěvky: 71
Registrován: 28 pro 2008 17:53
Dostal poděkování: 4 poděkování

Re: Vinnetou ( 1 až 16 ) český dabing

Příspěvek od adalv » 28 pro 2008 18:03

Divokým kurdistánem:

Kód: Vybrat vše

http://megarapid.eu/files/1201586/Divokym_kurdistanem.part1.rar
http://megarapid.eu/files/1201584/Divokym_kurdistanem.part2.rar
Mezi supy:

Kód: Vybrat vše

http://megarapid.eu/files/1201587/Mezi_supy.part1.rar
http://megarapid.eu/files/1201585/Mezi_supy.part2.rar
Žut:

Kód: Vybrat vše

http://megarapid.eu/files/1201589/Zut.part1.rar
http://megarapid.eu/files/1201588/Zut.part2.rar

Heslo: svejcko
adalv
Pozorovatel
Pozorovatel
Příspěvky: 71
Registrován: 28 pro 2008 17:53
Dostal poděkování: 4 poděkování

Re: Vinnetou ( 1 až 16 ) český dabing

Příspěvek od adalv » 28 pro 2008 18:04

Vinnetou 1 a 2
Obrázek

Kód: Vybrat vše

http://www.csfd.cz/film/33362-vinnetou-winnetou-i/


Obrázek
Obrázek

Kód: Vybrat vše

http://megarapid.eu/files/1201628/VINNETOU__A_RUDY_GENTLEMAN.001
http://megarapid.eu/files/1201625/VINNETOU__A_RUDY_GENTLEMAN.002
http://megarapid.eu/files/1201622/VINNETOU__A_RUDY_GENTLEMAN.CRC
http://megarapid.eu/files/1201629/VINNETOU.001
http://megarapid.eu/files/1201625/VINNETOU.002
http://megarapid.eu/files/1201622/VINNETOU.CRC
adalv
Pozorovatel
Pozorovatel
Příspěvky: 71
Registrován: 28 pro 2008 17:53
Dostal poděkování: 4 poděkování

Re: Vinnetou ( 1 až 16 ) český dabing

Příspěvek od adalv » 31 pro 2008 09:00

Divokym kurdistanem
Obrázek

kód:

Kód: Vybrat vše

http://www.csfd.cz/film/33377-divokym-kurdistanem-durchs-wilde-kurdistan/
Všeobecné
Délka 97:12
Celkový bitrate 912kbps
Typ média riff
Obraz
Rozlišení 720x576
Bitrate 784kbps(vbr)
Kodek DivX v5
Zvuk
Bitrate 128kbps (cbr)
Kanály 2 (stereo)
Kodek MPEG Layer-3
Vzorkovací frekvence 44100

Link:

Kód: Vybrat vše

http://share-rapid.com/stahuj/47312/divokym-kurdistanem.avi?dealer_id=26023
nebo

Kód: Vybrat vše

http://megarapid.eu/files/1201627/Divokym_Kurdistanem.avi
nebo
http://megarapid.eu/files/1201669/Divokym_Kurdistanem.avi
................................................................................................................................
Mezi supy

kód:
Obrázek

Kód: Vybrat vše

http://www.csfd.cz/film/33361-mezi-supy-unter-geiern/
Všeobecné
Délka 80:43
Celkový bitrate 1289kbps
Typ média riff
Obraz
Rozlišení 656x288
Bitrate 1033kbps(vbr)
Kodek DivX v5
Zvuk
Bitrate 256kbps (cbr)
Kanály 2 (stereo)
Kodek MPEG Layer-3
Vzorkovací frekvence 44100

Link:

Kód: Vybrat vše

http://share-rapid.com/stahuj/47361/mezi-supy.avi?dealer_id=26023
nebo

Kód: Vybrat vše

http://megarapid.eu/files/1201627/Mezi_supy..avi
................................................................................................................................
Zut

Obrázek

kód:

Kód: Vybrat vše

http://www.csfd.cz/film/33398-zut-schut-der/

Všeobecné
Délka 110:07
Celkový bitrate 912kbps
Typ média riff
Obraz
Rozlišení 720x576
Bitrate 784kbps(vbr)
Kodek DivX v5
Zvuk
Bitrate 128kbps (cbr)
Kanály 2 (stereo)
Kodek MPEG Layer-3
Vzorkovací frekvence 44100

Link:

Kód: Vybrat vše

http://share-rapid.com/stahuj/47616/zut.avi?dealer_id=26023
nebo

Kód: Vybrat vše

http://megarapid.eu/files/1201673/Zut.avi
................................................................................................................................
Petrolejovy princ

Obrázek

kód:

Kód: Vybrat vše

http://www.csfd.cz/film/33369-petrolejovy-princ-olprinz-der/
Všeobecné
Délka 86:52
Celkový bitrate 1112kbps
Typ média riff
Obraz
Rozlišení 672x288
Bitrate 1015kbps(vbr)
Kodek XviD MPEG-4 (http://www.xvid.org)
Zvuk
Bitrate 96kbps (vbr)
Kanály 1 (mono)
Kodek MPEG Layer-3
Vzorkovací frekvence 48000
Převedeno pomocí LAME3.97

Link:

Kód: Vybrat vše

http://share-rapid.com/stahuj/47449/der-oelprinz-cz-velvet.avi?dealer_id=26023
nebo

Kód: Vybrat vše

http://megarapid.eu/files/1201670/der.oelprinz.cz-velvet.avi
................................................................................................................................
Poklad Azteku

Obrázek

kód:

Kód: Vybrat vše

http://www.csfd.cz/film/33397-poklad-azteku-schatz-der-azteken-der/

Všeobecné
Délka 95:31
Celkový bitrate 911kbps
Typ média riff
Obraz
Rozlišení 720x576
Bitrate 783kbps(vbr)
Kodek DivX v5
Zvuk
Bitrate 128kbps (cbr)
Kanály 2 (stereo)
Kodek MPEG Layer-3
Vzorkovací frekvence 44100

Link:

Kód: Vybrat vše

http://share-rapid.com/stahuj/47546/poklad-azteku.avi?dealer_id=26023
nebo

Kód: Vybrat vše

http://megarapid.eu/files/1201671/Poklad_Azteku.avi
................................................................................................................................
Pyramida boha slunce

Obrázek

kód:

Kód: Vybrat vše

http://www.csfd.cz/film/33394-pyramida-boha-slunce-pyramide-des-sonnengottes-die/
Všeobecné
Délka 92:42
Celkový bitrate 912kbps
Typ média riff
Obraz
Rozlišení 720x576
Bitrate 784kbps(vbr)
Kodek DivX v5
Zvuk
Bitrate 128kbps (cbr)
Kanály 2 (stereo)
Kodek MPEG Layer-3
Vzorkovací frekvence 44100

Link:

Kód: Vybrat vše

http://share-rapid.com/stahuj/47580/pyramida-boha-slounce.avi?dealer_id=26023
nebo

Kód: Vybrat vše

http://megarapid.eu/files/1201671/Pyramida_boha_Slounce.avi
................................................................................................................................
Vinnetou

Obrázek

kód:

Kód: Vybrat vše

http://www.csfd.cz/film/33362-vinnetou-winnetou-i/
info kvality:
Zdroj . DVD
Format : AVI
Length : 700 MiB for 1h 37mn 2s 760ms
Video #0 : DivX 5 at 863 Kbps
Aspect : 640 x 288 (2.222) at 25.000 fps
Audio #0 : MPEG-1 Audio layer 3 at 128 Kbps
Infos : 2 kanály, 48 KHz
Language : cs

Link:

Kód: Vybrat vše

http://share-rapid.com/stahuj/47136/vinnetou.001?dealer_id=26023
http://share-rapid.com/stahuj/47184/vinnetou.002?dealer_id=26023
http://share-rapid.com/stahuj/47185/vinnetou.crc?dealer_id=26023
nebo

Kód: Vybrat vše

http://megarapid.eu/files/1201629/VINNETOU.001
http://megarapid.eu/files/1201625/VINNETOU.002
http://megarapid.eu/files/1201622/VINNETOU.CRC
................................................................................................................................
Vinnetou Rudy gentleman

Obrázek

kód:

Kód: Vybrat vše

http://www.csfd.cz/film/33363-vinnetou-rudy-gentleman-winnetou-ii/
info kvality:
Zdroj: DVD
Format : AVI
Length : 700 MiB for 1h 30mn 10s 480ms
Video #0 : DivX 5 at 940 Kbps
Aspect : 640 x 288 (2.222) at 25.000 fps
Audio #0 : MPEG-1 Audio layer 3 at 128 Kbps
Infos : 2 kanály, 48 KHz
Language : cs

Link:

Kód: Vybrat vše

http://share-rapid.com/stahuj/47006/vinnetou-a-rudy-gentleman.001?dealer_id=26023
http://share-rapid.com/stahuj/47050/vinnetou-a-rudy-gentleman.002?dealer_id=26023
http://share-rapid.com/stahuj/47051/vinnetou-a-rudy-gentleman.crc?dealer_id=26023
nebo

Kód: Vybrat vše

http://megarapid.eu/files/1201628/VINNETOU__A_RUDY_GENTLEMAN.001
http://megarapid.eu/files/1201625/VINNETOU__A_RUDY_GENTLEMAN.002
http://megarapid.eu/files/1201622/VINNETOU__A_RUDY_GENTLEMAN.CRC
................................................................................................................................
Vinnetou posledni vystrel

Obrázek

kód:

Kód: Vybrat vše

http://www.csfd.cz/film/33364-vinnetou-posledni-vystrel-winnetou-iii/
info kvality:
Zdroj . DVD
Format : AVI
Length : 700 MiB for 1h 28mn 33s 560ms
Video #0 : DivX 5 at 960 Kbps
Aspect : 640 x 288 (2.222) at 25.000 fps
Audio #0 : MPEG-1 Audio layer 3 at 128 Kbps
Infos : 2 kanály, 48 KHz
Language : cs

Link:

Kód: Vybrat vše

http://share-rapid.com/stahuj/47255/vinnetou-posledni-vystrel.001?dealer_id=26023
http://share-rapid.com/stahuj/47261/vinnetou-posledni-vystrel.002?dealer_id=26023
http://share-rapid.com/stahuj/47262/vinnetou-posledni-vystrel.crc?dealer_id=26023
nebo

Kód: Vybrat vše

http://megarapid.eu/files/1201647/VINNETOU_POSLEDNI_VYSTREL.001
http://megarapid.eu/files/1201643/VINNETOU_POSLEDNI_VYSTREL.002
http://megarapid.eu/files/1201641/VINNETOU_POSLEDNI_VYSTREL.CRC
FenryMaja
Pilot
Pilot
Příspěvky: 2017
Registrován: 23 čer 2008 19:34
Dal poděkování: 234 poděkování
Dostal poděkování: 146 poděkování

Re: Vinnetou ( 1 až 16 ) český dabing

Příspěvek od FenryMaja » 07 črc 2009 20:22

Divokým Kurdistánem / Durchs wilde Kurdistan (1965)
Dobrodružný
Španělsko / Západní Německo, 99 min


Obrázek

Kód: Vybrat vše

http://www.csfd.cz/film/33377

Kód: Vybrat vše

General
Complete name                    : DK-FenryMaja\Divokym Kurdistanem.avi
Format                           : AVI
Format/Info                      : Audio Video Interleave
File size                        : 861 MiB
Duration                         : 1h 37mn
Overall bit rate                 : 1 236 Kbps
Director                         : sabre
Writing application              : Nandub v1.0rc2
Writing library                  : Nandub build 1853/release

Video
Format                           : MPEG-4 Visual
Format settings, BVOP            : Yes
Format settings, QPel            : No
Format settings, GMC             : No warppoints
Format settings, Matrix          : Default
Muxing mode                      : Packed bitstream
Codec ID                         : DX50
Codec ID/Hint                    : DivX 5
Duration                         : 1h 37mn
Bit rate                         : 1 096 Kbps
Width                            : 552 pixels
Height                           : 352 pixels
Display aspect ratio             : 1.568
Frame rate                       : 25.000 fps
Resolution                       : 24 bits
Colorimetry                      : 4:2:0
Scan type                        : Progressive
Bits/(Pixel*Frame)               : 0.226
Stream size                      : 764 MiB (89%)
Writing library                  : DivX 5.2.1 (DrDivX 106) (UTC 2004-09-08)

Audio
Format                           : MPEG Audio
Format version                   : Version 1
Format profile                   : Layer 3
Codec ID                         : 55
Codec ID/Hint                    : MP3
Duration                         : 1h 37mn
Bit rate mode                    : Constant
Bit rate                         : 128 Kbps
Channel(s)                       : 2 channels
Sampling rate                    : 44.1 KHz
Resolution                       : 16 bits
Stream size                      : 89.2 MiB (10%)
Alignment                        : Aligned on interleaves
Interleave, duration             : 26 ms (0.65 video frame)
Interleave, preload duration     : 496 ms


Obrázek

Kód: Vybrat vše

http://czshare.com/750926/0Xd_/DK_FenryMaja.part1.rar
http://czshare.com/750928/Kk_o/DK_FenryMaja.part2.rar
http://czshare.com/750929/vWdF/DK_FenryMaja.part3.rar
http://czshare.com/750931/xy_v/DK_FenryMaja.part4.rar
http://czshare.com/750932/6CgI/DK_FenryMaja.part5.rar
Obrázek

Kód: Vybrat vše

http://www.filefactory.com/file/ag27646/n/DK-FenryMaja_part1_rar
http://www.filefactory.com/file/ag2765h/n/DK-FenryMaja_part2_rar
http://www.filefactory.com/file/ag2767a/n/DK-FenryMaja_part3_rar
http://www.filefactory.com/file/ag28777/n/DK-FenryMaja_part4_rar
http://www.filefactory.com/file/ag2878c/n/DK-FenryMaja_part5_rar
Obrázek

Kód: Vybrat vše

http://download.cz.hellshare.com/dk-fenrymaja-part1.rar/374288
http://download.cz.hellshare.com/dk-fenrymaja-part2.rar/374289
http://download.cz.hellshare.com/dk-fenrymaja-part3.rar/374293
http://download.cz.hellshare.com/dk-fenrymaja-part4.rar/374294
http://download.cz.hellshare.com/dk-fenrymaja-part5.rar/374295
Obrázek

Kód: Vybrat vše

http://rapidshare.com/files/238374788/DK-FenryMaja.part1.rar.html
http://rapidshare.com/files/238374955/DK-FenryMaja.part2.rar.html
http://rapidshare.com/files/238375146/DK-FenryMaja.part3.rar.html
http://rapidshare.com/files/238375297/DK-FenryMaja.part4.rar.html
http://rapidshare.com/files/238375376/DK-FenryMaja.part5.rar.html
Obrázek

Kód: Vybrat vše

http://share-rapid.com/stahuj/191102/dk-fenrymaja-part1.rar
http://share-rapid.com/stahuj/191104/dk-fenrymaja-part2.rar
http://share-rapid.com/stahuj/191105/dk-fenrymaja-part3.rar
http://share-rapid.com/stahuj/191106/dk-fenrymaja-part4.rar
http://share-rapid.com/stahuj/191107/dk-fenrymaja-part5.rar
Obrázek

Kód: Vybrat vše

http://www.uloz.cz/show/file/105550-DK-FenryMaja.part1.rar
http://www.uloz.cz/show/file/105551-DK-FenryMaja.part2.rar
http://www.uloz.cz/show/file/105552-DK-FenryMaja.part3.rar
http://www.uloz.cz/show/file/105553-DK-FenryMaja.part4.rar
http://www.uloz.cz/show/file/105554-DK-FenryMaja.part5.rar
Obrázek

Kód: Vybrat vše

http://uloz.to/1852437/dk-fenrymaja.part1.rar
http://uloz.to/1852438/dk-fenrymaja.part2.rar
http://uloz.to/1852439/dk-fenrymaja.part3.rar
http://uloz.to/1852441/dk-fenrymaja.part4.rar
http://uloz.to/1852445/dk-fenrymaja.part5.rar
Obrázek

Kód: Vybrat vše

http://www.upnito.sk/download.php?dwToken=2461964a7479bcd9605a4ccea7efe00c
http://www.upnito.sk/download.php?dwToken=0f66ae792207bfe361b517de90dbd038
http://www.upnito.sk/download.php?dwToken=1c9bf9cc09d92fa37f7053855fb226d9
http://www.upnito.sk/download.php?dwToken=5b61b7cf9f7a5e1dc939fbe83e61e982
http://www.upnito.sk/download.php?dwToken=7855117b258bd75bd55996ca4d218c98
Obrázek
Obrázek
FenryMaja
Pilot
Pilot
Příspěvky: 2017
Registrován: 23 čer 2008 19:34
Dal poděkování: 234 poděkování
Dostal poděkování: 146 poděkování

Re: Vinnetou ( 1 až 16 ) český dabing

Příspěvek od FenryMaja » 07 črc 2009 20:23

Old Shatterhand / Old Shatterhand (1964)
Western / Dobrodružný
Západní Německo / Francie / Itálie / Jugoslávie, 116 min


Obrázek

Kód: Vybrat vše

http://www.csfd.cz/film/33356

Kód: Vybrat vše

General
Complete name                    : OSH-FenryMaja\Old Shaterhand.avi
Format                           : AVI
Format/Info                      : Audio Video Interleave
File size                        : 700 MiB + 700 MiB
Duration                         : 59mn 38s + 56mn 28s
Overall bit rate                 : 1 641 Kbps + 1 732 Kbps
Writing application              : VirtualDubMod 1.5.4.1 (build 2178/release)
Writing library                  : VirtualDubMod build 2178/release

Video
Format                           : MPEG-4 Visual
Format settings, BVOP            : Yes
Format settings, QPel            : No
Format settings, GMC             : No warppoints
Format settings, Matrix          : Default
Codec ID                         : DX50
Codec ID/Hint                    : DivX 5
Duration                         : 59mn 38s + 56mn 28s
Bit rate                         : 1 506 Kbps + 1 732 Kbps 
Width                            : 640 pixels
Height                           : 288 pixels
Display aspect ratio             : 2.222
Frame rate                       : 25.000 fps
Resolution                       : 24 bits
Colorimetry                      : 4:2:0
Scan type                        : Progressive
Bits/(Pixel*Frame)               : 0.327
Stream size                      : 642 MiB (92%) + 645 MiB (92%)
Writing library                  : DivX 6.6.1.4

Audio
Format                           : MPEG Audio
Format version                   : Version 1
Format profile                   : Layer 3
Codec ID                         : 55
Codec ID/Hint                    : MP3
Duration                         : 59mn 38s + 56mn 28s
Bit rate mode                    : Constant
Bit rate                         : 128 Kbps
Minimum bit rate                 : 128 Kbps
Channel(s)                       : 2 channels
Sampling rate                    : 48.0 KHz
Resolution                       : 16 bits
Stream size                      : 54.6 MiB (8%) + 51.7 MiB (7%)
Alignment                        : Aligned on interleaves
Interleave, duration             : 80 ms (2.00 video frames)
Interleave, preload duration     : 504 ms
Writing library                  : LAME3.97 
Encoding settings                : CBR


Obrázek

Kód: Vybrat vše

http://czshare.com/750950/_DzR/OSH_FenryMaja.part1.rar
http://czshare.com/750952/XFM4/OSH_FenryMaja.part2.rar
http://czshare.com/750954/ASg_/OSH_FenryMaja.part3.rar
http://czshare.com/750955/bnns/OSH_FenryMaja.part4.rar
http://czshare.com/750956/4u7z/OSH_FenryMaja.part5.rar
http://czshare.com/750958/KY_0/OSH_FenryMaja.part6.rar
http://czshare.com/750959/He6A/OSH_FenryMaja.part7.rar
http://czshare.com/750960/YCMc/OSH_FenryMaja.part8.rar
Obrázek

Kód: Vybrat vše

http://www.filefactory.com/file/ag277g2/n/OSH-FenryMaja_part1_rar
http://www.filefactory.com/file/ag277hc/n/OSH-FenryMaja_part2_rar
http://www.filefactory.com/file/ag277h4/n/OSH-FenryMaja_part3_rar
http://www.filefactory.com/file/ag2770g/n/OSH-FenryMaja_part4_rar
http://www.filefactory.com/file/ag27708/n/OSH-FenryMaja_part5_rar
http://www.filefactory.com/file/ag27712/n/OSH-FenryMaja_part6_rar
http://www.filefactory.com/file/ag27719/n/OSH-FenryMaja_part7_rar
http://www.filefactory.com/file/ag2772f/n/OSH-FenryMaja_part8_rar
Obrázek

Kód: Vybrat vše

http://download.cz.hellshare.com/osh-fenrymaja-part1.rar/374313
http://download.cz.hellshare.com/osh-fenrymaja-part2.rar/374314
http://download.cz.hellshare.com/osh-fenrymaja-part3.rar/374315
http://download.cz.hellshare.com/osh-fenrymaja-part4.rar/374316
http://download.cz.hellshare.com/osh-fenrymaja-part5.rar/374318
http://download.cz.hellshare.com/osh-fenrymaja-part6.rar/374319
http://download.cz.hellshare.com/osh-fenrymaja-part7.rar/374321
http://download.cz.hellshare.com/osh-fenrymaja-part8.rar/374322
Obrázek

Kód: Vybrat vše

http://rapidshare.com/files/238377479/OSH-FenryMaja.part1.rar.html
http://rapidshare.com/files/238377734/OSH-FenryMaja.part2.rar.html
http://rapidshare.com/files/238377889/OSH-FenryMaja.part3.rar.html
http://rapidshare.com/files/238378037/OSH-FenryMaja.part4.rar.html
http://rapidshare.com/files/238378235/OSH-FenryMaja.part5.rar.html
http://rapidshare.com/files/238378384/OSH-FenryMaja.part6.rar.html
http://rapidshare.com/files/238378556/OSH-FenryMaja.part7.rar.html
http://rapidshare.com/files/238378597/OSH-FenryMaja.part8.rar.html
Obrázek

Kód: Vybrat vše

http://share-rapid.com/stahuj/191123/osh-fenrymaja-part1.rar
http://share-rapid.com/stahuj/191124/osh-fenrymaja-part2.rar
http://share-rapid.com/stahuj/191125/osh-fenrymaja-part3.rar
http://share-rapid.com/stahuj/191126/osh-fenrymaja-part4.rar
http://share-rapid.com/stahuj/191127/osh-fenrymaja-part5.rar
http://share-rapid.com/stahuj/191128/osh-fenrymaja-part6.rar
http://share-rapid.com/stahuj/191129/osh-fenrymaja-part7.rar
http://share-rapid.com/stahuj/191130/osh-fenrymaja-part8.rar
Obrázek

Kód: Vybrat vše

http://www.uloz.cz/show/file/105568-OSH-FenryMaja.part1.rar
http://www.uloz.cz/show/file/105569-OSH-FenryMaja.part2.rar
http://www.uloz.cz/show/file/105570-OSH-FenryMaja.part3.rar
http://www.uloz.cz/show/file/105571-OSH-FenryMaja.part4.rar
http://www.uloz.cz/show/file/105572-OSH-FenryMaja.part5.rar
http://www.uloz.cz/show/file/105573-OSH-FenryMaja.part6.rar
http://www.uloz.cz/show/file/105574-OSH-FenryMaja.part7.rar
http://www.uloz.cz/show/file/105575-OSH-FenryMaja.part8.rar
Obrázek

Kód: Vybrat vše

http://uloz.to/1852461/osh-fenrymaja.part1.rar
http://uloz.to/1852462/osh-fenrymaja.part2.rar
http://uloz.to/1852463/osh-fenrymaja.part3.rar
http://uloz.to/1852464/osh-fenrymaja.part4.rar
http://uloz.to/1852465/osh-fenrymaja.part5.rar
http://uloz.to/1852466/osh-fenrymaja.part6.rar
http://uloz.to/1852467/osh-fenrymaja.part7.rar
http://uloz.to/1852468/osh-fenrymaja.part8.rar
Obrázek

Kód: Vybrat vše

http://www.upnito.sk/download.php?dwToken=42286bc7d14f0452cf6f6366e197ca8a
http://www.upnito.sk/download.php?dwToken=f48038dcff3488e071ec4cf319b552f1
http://www.upnito.sk/download.php?dwToken=857f9c381a419317629d064661b001cd
http://www.upnito.sk/download.php?dwToken=e01aebf15fd24bc94483079120c0eea7
http://www.upnito.sk/download.php?dwToken=61508cb05d3d196416f931d92522691e
http://www.upnito.sk/download.php?dwToken=a0d195e99bd77d1e11a9fea1500c1a10
http://www.upnito.sk/download.php?dwToken=6479731f62958ca87127c437fa0aed76
http://www.upnito.sk/download.php?dwToken=5c2ff6134177fe1178dfbeb25469de75
Obrázek
Obrázek
FenryMaja
Pilot
Pilot
Příspěvky: 2017
Registrován: 23 čer 2008 19:34
Dal poděkování: 234 poděkování
Dostal poděkování: 146 poděkování

Re: Vinnetou ( 1 až 16 ) český dabing

Příspěvek od FenryMaja » 07 črc 2009 20:23

Old Surehand (1965)
Western / Dobrodružný
Západní Německo / Jugoslávie, 87 min


Obrázek

Kód: Vybrat vše

http://www.csfd.cz/film/33357

Kód: Vybrat vše

General
Complete name                    : OSU-FenryMaja\Old Surehand.avi
Format                           : AVI
Format/Info                      : Audio Video Interleave
File size                        : 700 MiB
Duration                         : 1h 26mn
Overall bit rate                 : 1 138 Kbps
Writing library                  : VirtualDub build 21540/release

Video
Format                           : MPEG-4 Visual
Format settings, BVOP            : Yes
Format settings, QPel            : No
Format settings, GMC             : No warppoints
Format settings, Matrix          : Default
Muxing mode                      : Packed bitstream
Codec ID                         : DX50
Codec ID/Hint                    : DivX 5
Duration                         : 1h 26mn
Bit rate                         : 1 000 Kbps
Width                            : 556 pixels
Height                           : 302 pixels
Display aspect ratio             : 16/9
Frame rate                       : 25.000 fps
Resolution                       : 24 bits
Colorimetry                      : 4:2:0
Scan type                        : Progressive
Bits/(Pixel*Frame)               : 0.238
Stream size                      : 616 MiB (88%)
Writing library                  : DivX 5.2.1 (DrDivX 106) (UTC 2004-09-08)

Audio
Format                           : MPEG Audio
Format version                   : Version 1
Format profile                   : Layer 3
Codec ID                         : 55
Codec ID/Hint                    : MP3
Duration                         : 1h 26mn
Bit rate mode                    : Constant
Bit rate                         : 128 Kbps
Channel(s)                       : 2 channels
Sampling rate                    : 44.1 KHz
Resolution                       : 16 bits
Stream size                      : 78.6 MiB (11%)
Alignment                        : Split accross interleaves
Interleave, duration             : 40 ms (1.00 video frame)
Interleave, preload duration     : 500 ms

Obrázek

Kód: Vybrat vše

http://czshare.com/750961/1oZq/OSU_FenryMaja.part1.rar
http://czshare.com/750962/MPP_/OSU_FenryMaja.part2.rar
http://czshare.com/750963/2_rJ/OSU_FenryMaja.part3.rar
http://czshare.com/750964/_D7_/OSU_FenryMaja.part4.rar
Obrázek

Kód: Vybrat vše

http://www.filefactory.com/file/ag27726/n/OSU-FenryMaja_part1_rar
http://www.filefactory.com/file/ag27735/n/OSU-FenryMaja_part2_rar
http://www.filefactory.com/file/ag2774g/n/OSU-FenryMaja_part3_rar
http://www.filefactory.com/file/ag2775e/n/OSU-FenryMaja_part4_rar
Obrázek

Kód: Vybrat vše

http://download.cz.hellshare.com/osu-fenrymaja-part1.rar/374323
http://download.cz.hellshare.com/osu-fenrymaja-part2.rar/374324
http://download.cz.hellshare.com/osu-fenrymaja-part3.rar/374325
http://download.cz.hellshare.com/osu-fenrymaja-part4.rar/374326
Obrázek

Kód: Vybrat vše

http://rapidshare.com/files/238378732/OSU-FenryMaja.part1.rar.html
http://rapidshare.com/files/238378890/OSU-FenryMaja.part2.rar.html
http://rapidshare.com/files/238379050/OSU-FenryMaja.part3.rar.html
http://rapidshare.com/files/238379150/OSU-FenryMaja.part4.rar.html
Obrázek

Kód: Vybrat vše

http://share-rapid.com/stahuj/191131/osu-fenrymaja-part1.rar
http://share-rapid.com/stahuj/191132/osu-fenrymaja-part2.rar
http://share-rapid.com/stahuj/191133/osu-fenrymaja-part3.rar
http://share-rapid.com/stahuj/191134/osu-fenrymaja-part4.rar
Obrázek

Kód: Vybrat vše

http://www.uloz.cz/show/file/105576-OSU-FenryMaja.part1.rar
http://www.uloz.cz/show/file/105594-OSU-FenryMaja.part2.rar
http://www.uloz.cz/show/file/105578-OSU-FenryMaja.part3.rar
http://www.uloz.cz/show/file/105579-OSU-FenryMaja.part4.rar
Obrázek

Kód: Vybrat vše

http://uloz.to/1852469/osu-fenrymaja.part1.rar
http://uloz.to/1852470/osu-fenrymaja.part2.rar
http://uloz.to/1852471/osu-fenrymaja.part3.rar
http://uloz.to/1852472/osu-fenrymaja.part4.rar
Obrázek

Kód: Vybrat vše

http://www.upnito.sk/download.php?dwToken=435c3ad49c6482a5ea987289171fe4c6
http://www.upnito.sk/download.php?dwToken=2d11cecb1606e256c7c75c88142ffa8e
http://www.upnito.sk/download.php?dwToken=247c189f8fef85e1cc0bddd53ed8f9bd
http://www.upnito.sk/download.php?dwToken=7712929c3e079140d7e0939f33bf03fe
Obrázek
Obrázek
FenryMaja
Pilot
Pilot
Příspěvky: 2017
Registrován: 23 čer 2008 19:34
Dal poděkování: 234 poděkování
Dostal poděkování: 146 poděkování

Re: Vinnetou ( 1 až 16 ) český dabing

Příspěvek od FenryMaja » 07 črc 2009 20:23

Poklad Aztéků / Schatz der Azteken, Der (1965)
Dobrodružný / Western
Západní Německo / Itálie / Francie, 101 min


Obrázek

Kód: Vybrat vše

http://www.csfd.cz/film/33397

Kód: Vybrat vše

General
Complete name                    : PA-FenryMaja\Poklad Azteku.avi
Format                           : AVI
Format/Info                      : Audio Video Interleave
File size                        : 1.03 GiB
Duration                         : 1h 35mn
Overall bit rate                 : 1 550 Kbps
Writing library                  : VirtualDub build 18160/release

Video
Format                           : MPEG-4 Visual
Format profile                   : Simple@L1
Format settings, BVOP            : No
Format settings, QPel            : No
Format settings, GMC             : No warppoints
Format settings, Matrix          : Default
Codec ID                         : DIVX
Codec ID/Info                    : Project Mayo
Codec ID/Hint                    : DivX 4
Duration                         : 1h 35mn
Bit rate                         : 1 412 Kbps
Width                            : 704 pixels
Height                           : 360 pixels
Display aspect ratio             : 1.956
Frame rate                       : 25.000 fps
Resolution                       : 24 bits
Colorimetry                      : 4:2:0
Scan type                        : Progressive
Bits/(Pixel*Frame)               : 0.223
Stream size                      : 965 MiB (91%)
Writing library                  : FFmpeg0.4.9-pre1b4736

Audio
Format                           : MPEG Audio
Format version                   : Version 1
Format profile                   : Layer 3
Codec ID                         : 55
Codec ID/Hint                    : MP3
Duration                         : 1h 35mn
Bit rate mode                    : Constant
Bit rate                         : 128 Kbps
Channel(s)                       : 2 channels
Sampling rate                    : 48.0 KHz
Resolution                       : 16 bits
Video delay                      : 8ms
Stream size                      : 87.5 MiB (8%)
Alignment                        : Split accross interleaves
Interleave, duration             : 40 ms (1.00 video frame)
Interleave, preload duration     : 500 ms
Writing library                  : LAME3.93

Obrázek

Kód: Vybrat vše

http://czshare.com/750966/D2l0/PA_FenryMaja.part1.rar
http://czshare.com/750968/SP6y/PA_FenryMaja.part2.rar
http://czshare.com/750969/Y4vk/PA_FenryMaja.part3.rar
http://czshare.com/750971/NiGa/PA_FenryMaja.part4.rar
http://czshare.com/750972/I5mE/PA_FenryMaja.part5.rar
http://czshare.com/750973/fpa9/PA_FenryMaja.part6.rar
Obrázek

Kód: Vybrat vše

http://www.filefactory.com/file/ag27754/n/PA-FenryMaja_part1_rar
http://www.filefactory.com/file/ag27777/n/PA-FenryMaja_part2_rar
http://www.filefactory.com/file/ag27783/n/PA-FenryMaja_part3_rar
http://www.filefactory.com/file/ag27797/n/PA-FenryMaja_part4_rar
http://www.filefactory.com/file/ahgh03b/n/PA-FenryMaja_part5_rar
http://www.filefactory.com/file/ag278b6/n/PA-FenryMaja_part6_rar
Obrázek

Kód: Vybrat vše

http://download.cz.hellshare.com/pa-fenrymaja-part1.rar/374328
http://download.cz.hellshare.com/pa-fenrymaja-part2.rar/374330
http://download.cz.hellshare.com/pa-fenrymaja-part3.rar/374331
http://download.cz.hellshare.com/pa-fenrymaja-part4.rar/374332
http://download.cz.hellshare.com/pa-fenrymaja-part5.rar/374333
http://download.cz.hellshare.com/pa-fenrymaja-part6.rar/374334
Obrázek

Kód: Vybrat vše

http://rapidshare.com/files/238379294/PA-FenryMaja.part1.rar.html
http://rapidshare.com/files/238379490/PA-FenryMaja.part2.rar.html
http://rapidshare.com/files/238379634/PA-FenryMaja.part3.rar.html
http://rapidshare.com/files/238379783/PA-FenryMaja.part4.rar.html
http://rapidshare.com/files/238379929/PA-FenryMaja.part5.rar.html
http://rapidshare.com/files/238380013/PA-FenryMaja.part6.rar.html
Obrázek

Kód: Vybrat vše

http://share-rapid.com/stahuj/191135/pa-fenrymaja-part1.rar
http://share-rapid.com/stahuj/191136/pa-fenrymaja-part2.rar
http://share-rapid.com/stahuj/191137/pa-fenrymaja-part3.rar
http://share-rapid.com/stahuj/191138/pa-fenrymaja-part4.rar
http://share-rapid.com/stahuj/191140/pa-fenrymaja-part5.rar
http://share-rapid.com/stahuj/191141/pa-fenrymaja-part6.rar
Obrázek

Kód: Vybrat vše

http://www.uloz.cz/show/file/105580-PA-FenryMaja.part1.rar
http://www.uloz.cz/show/file/105581-PA-FenryMaja.part2.rar
http://www.uloz.cz/show/file/105582-PA-FenryMaja.part3.rar
http://www.uloz.cz/show/file/105583-PA-FenryMaja.part4.rar
http://www.uloz.cz/show/file/105584-PA-FenryMaja.part5.rar
http://www.uloz.cz/show/file/105585-PA-FenryMaja.part6.rar
Obrázek

Kód: Vybrat vše

http://uloz.to/1852478/pa-fenrymaja.part1.rar
http://uloz.to/1852479/pa-fenrymaja.part2.rar
http://uloz.to/1852481/pa-fenrymaja.part3.rar
http://uloz.to/1852482/pa-fenrymaja.part4.rar
http://uloz.to/1852483/pa-fenrymaja.part5.rar
http://uloz.to/1852484/pa-fenrymaja.part6.rar
Obrázek

Kód: Vybrat vše

http://www.upnito.sk/download.php?dwToken=f9a3a245577fe74df702de20d45a90f8
http://www.upnito.sk/download.php?dwToken=adebf799c3cd165a8adc9a45948be816
http://www.upnito.sk/download.php?dwToken=2d20cf063a011370d88d0981c9e89eab
http://www.upnito.sk/download.php?dwToken=fc789351a61def211b636ec9301904df
http://www.upnito.sk/download.php?dwToken=3721a0048545e844b45c652a08aba29d
http://www.upnito.sk/download.php?dwToken=77c3041668173af42d00e39601ceeba6
Obrázek
Obrázek
FenryMaja
Pilot
Pilot
Příspěvky: 2017
Registrován: 23 čer 2008 19:34
Dal poděkování: 234 poděkování
Dostal poděkování: 146 poděkování

Re: Vinnetou ( 1 až 16 ) český dabing

Příspěvek od FenryMaja » 07 črc 2009 20:24

Pyramida boha slunce / Pyramide des Sonnengottes, Die (1965)
Western / Dobrodružný
Západní Německo / Itálie / Francie, 95 min


Obrázek

Kód: Vybrat vše

http://www.csfd.cz/film/33394

Kód: Vybrat vše

General
Complete name                    : PBS-FenryMaja\Pyramida boha slunce.avi
Format                           : AVI
Format/Info                      : Audio Video Interleave
File size                        : 698 MiB
Duration                         : 1h 32mn
Overall bit rate                 : 1 050 Kbps
Writing library                  : VirtualDub-MPEG2 build 18232/release

Video
Format                           : MPEG-4 Visual
Format settings, BVOP            : Yes
Format settings, QPel            : No
Format settings, GMC             : No warppoints
Format settings, Matrix          : Default
Muxing mode                      : Packed bitstream
Codec ID                         : DX50
Codec ID/Hint                    : DivX 5
Duration                         : 1h 32mn
Bit rate                         : 1 000 Kbps
Width                            : 640 pixels
Height                           : 398 pixels
Display aspect ratio             : 1.608
Frame rate                       : 25.000 fps
Resolution                       : 24 bits
Colorimetry                      : 4:2:0
Scan type                        : Progressive
Bits/(Pixel*Frame)               : 0.157
Stream size                      : 665 MiB (95%)
Writing library                  : DivX 5.0.3 (UTC 2003-01-24)

Audio
Format                           : MPEG Audio
Format version                   : Version 2
Format profile                   : Layer 3
Codec ID                         : 55
Codec ID/Hint                    : MP3
Duration                         : 1h 32mn
Bit rate mode                    : Constant
Bit rate                         : 40.0 Kbps
Channel(s)                       : 2 channels
Sampling rate                    : 22.05 KHz
Resolution                       : 16 bits
Stream size                      : 26.4 MiB (4%)
Alignment                        : Split accross interleaves
Interleave, duration             : 40 ms (1.00 video frame)
Interleave, preload duration     : 500 ms


Obrázek

Kód: Vybrat vše

http://czshare.com/750974/s1Y2/PBS_FenryMaja.part1.rar
http://czshare.com/750975/15y8/PBS_FenryMaja.part2.rar
http://czshare.com/750976/Ht5m/PBS_FenryMaja.part3.rar
http://czshare.com/750977/EG7y/PBS_FenryMaja.part4.rar
Obrázek

Kód: Vybrat vše

http://www.filefactory.com/file/ag278c3/n/PBS-FenryMaja_part1_rar
http://www.filefactory.com/file/ag278ea/n/PBS-FenryMaja_part2_rar
http://www.filefactory.com/file/ag278e5/n/PBS-FenryMaja_part3_rar
http://www.filefactory.com/file/ag278fa/n/PBS-FenryMaja_part4_rar
Obrázek

Kód: Vybrat vše

http://download.cz.hellshare.com/pbs-fenrymaja-part1.rar/374335
http://download.cz.hellshare.com/pbs-fenrymaja-part2.rar/374337
http://download.cz.hellshare.com/pbs-fenrymaja-part3.rar/374338
http://download.cz.hellshare.com/pbs-fenrymaja-part4.rar/374339
Obrázek

Kód: Vybrat vše

http://rapidshare.com/files/238380210/PBS-FenryMaja.part1.rar.html
http://rapidshare.com/files/238380377/PBS-FenryMaja.part2.rar.html
http://rapidshare.com/files/238380553/PBS-FenryMaja.part3.rar.html
http://rapidshare.com/files/238380640/PBS-FenryMaja.part4.rar.html
Obrázek

Kód: Vybrat vše

http://share-rapid.com/stahuj/191142/pbs-fenrymaja-part1.rar
http://share-rapid.com/stahuj/191143/pbs-fenrymaja-part2.rar
http://share-rapid.com/stahuj/191145/pbs-fenrymaja-part3.rar
http://share-rapid.com/stahuj/191147/pbs-fenrymaja-part4.rar
Obrázek

Kód: Vybrat vše

http://www.uloz.cz/show/file/105586-PBS-FenryMaja.part1.rar
http://www.uloz.cz/show/file/105587-PBS-FenryMaja.part2.rar
http://www.uloz.cz/show/file/105588-PBS-FenryMaja.part3.rar
http://www.uloz.cz/show/file/105589-PBS-FenryMaja.part4.rar
Obrázek

Kód: Vybrat vše

http://uloz.to/1852486/pbs-fenrymaja.part1.rar
http://uloz.to/1852488/pbs-fenrymaja.part2.rar
http://uloz.to/1852490/pbs-fenrymaja.part3.rar
http://uloz.to/1852491/pbs-fenrymaja.part4.rar
Obrázek

Kód: Vybrat vše

http://www.upnito.sk/download.php?dwToken=3d765bbb63474ba437898816e6ce9b06
http://www.upnito.sk/download.php?dwToken=47ca7021cc261b8bb72d25f5689268db
http://www.upnito.sk/download.php?dwToken=eb370e5b7bdcd75cc75d6c8fa6ee5268
http://www.upnito.sk/download.php?dwToken=f9a0927e51c7cd29f33d2e45c5f017ec
Obrázek
Obrázek
FenryMaja
Pilot
Pilot
Příspěvky: 2017
Registrován: 23 čer 2008 19:34
Dal poděkování: 234 poděkování
Dostal poděkování: 146 poděkování

Re: Vinnetou ( 1 až 16 ) český dabing

Příspěvek od FenryMaja » 07 črc 2009 20:24

Vinnetou a míšenka Apanači / Winnetou und das Halbblut Apanatschi (1966)
Western / Dobrodružný
Západní Německo / Itálie / Jugoslávie, 90 min


Obrázek

Kód: Vybrat vše

http://www.csfd.cz/film/33365

Kód: Vybrat vše

General
Complete name                    : VAMA-FenryMaja\Vinetou a miesanka Apanaci.avi
Format                           : AVI
Format/Info                      : Audio Video Interleave
File size                        : 700 MiB
Duration                         : 1h 26mn
Overall bit rate                 : 1 133 Kbps
Writing application              : VirtualDubMod 1.5.4.1 (build 2178/release)
Writing library                  : VirtualDubMod build 2178/release

Video
Format                           : MPEG-4 Visual
Format settings, BVOP            : Yes
Format settings, QPel            : No
Format settings, GMC             : No warppoints
Format settings, Matrix          : Default
Codec ID                         : DX50
Codec ID/Hint                    : DivX 5
Duration                         : 1h 26mn
Bit rate                         : 997 Kbps
Width                            : 640 pixels
Height                           : 288 pixels
Display aspect ratio             : 2.222
Frame rate                       : 25.000 fps
Resolution                       : 24 bits
Colorimetry                      : 4:2:0
Scan type                        : Progressive
Bits/(Pixel*Frame)               : 0.216
Stream size                      : 617 MiB (88%)
Writing library                  : DivX 6.6.1.4

Audio
Format                           : MPEG Audio
Format version                   : Version 1
Format profile                   : Layer 3
Codec ID                         : 55
Codec ID/Hint                    : MP3
Duration                         : 1h 26mn
Bit rate mode                    : Constant
Bit rate                         : 128 Kbps
Minimum bit rate                 : 128 Kbps
Channel(s)                       : 2 channels
Sampling rate                    : 48.0 KHz
Resolution                       : 16 bits
Stream size                      : 79.1 MiB (11%)
Alignment                        : Aligned on interleaves
Interleave, duration             : 80 ms (2.00 video frames)
Interleave, preload duration     : 504 ms
Writing library                  : LAME3.97 
Encoding settings                : CBR
Obrázek

Kód: Vybrat vše

http://czshare.com/751339/_PcE/VAMA_FenryMaja.part1.rar
http://czshare.com/751341/7y1C/VAMA_FenryMaja.part2.rar
http://czshare.com/751343/Rdit/VAMA_FenryMaja.part3.rar
http://czshare.com/751344/h_1N/VAMA_FenryMaja.part4.rar
Obrázek

Kód: Vybrat vše

http://www.filefactory.com/file/ag29bad/n/VAMA-FenryMaja_part1_rar
http://www.filefactory.com/file/ag29ba3/n/VAMA-FenryMaja_part2_rar
http://www.filefactory.com/file/ag29bbd/n/VAMA-FenryMaja_part3_rar
http://www.filefactory.com/file/ag29bca/n/VAMA-FenryMaja_part4_rar
Obrázek

Kód: Vybrat vše

http://download.cz.hellshare.com/vama-fenrymaja-part1.rar/375102
http://download.cz.hellshare.com/vama-fenrymaja-part2.rar/375104
http://download.cz.hellshare.com/vama-fenrymaja-part3.rar/375105
http://download.cz.hellshare.com/vama-fenrymaja-part4.rar/375106
Obrázek

Kód: Vybrat vše

http://rapidshare.com/files/238494028/VAMA-FenryMaja.part1.rar.html
http://rapidshare.com/files/238494216/VAMA-FenryMaja.part2.rar.html
http://rapidshare.com/files/238494417/VAMA-FenryMaja.part3.rar.html
http://rapidshare.com/files/238494580/VAMA-FenryMaja.part4.rar.html
Obrázek

Kód: Vybrat vše

http://share-rapid.com/stahuj/191690/vama-fenrymaja-part1.rar
http://share-rapid.com/stahuj/191691/vama-fenrymaja-part2.rar
http://share-rapid.com/stahuj/191692/vama-fenrymaja-part3.rar
http://share-rapid.com/stahuj/191693/vama-fenrymaja-part4.rar
Obrázek

Kód: Vybrat vše

http://www.uloz.cz/show/file/105612-VAMA-FenryMaja.part1.rar
http://www.uloz.cz/show/file/105613-VAMA-FenryMaja.part2.rar
http://www.uloz.cz/show/file/105614-VAMA-FenryMaja.part3.rar
http://www.uloz.cz/show/file/105615-VAMA-FenryMaja.part4.rar
Obrázek

Kód: Vybrat vše

http://uloz.to/1853955/vama-fenrymaja.part1.rar
http://uloz.to/1853957/vama-fenrymaja.part2.rar
http://uloz.to/1853959/vama-fenrymaja.part3.rar
http://uloz.to/1853960/vama-fenrymaja.part4.rar
Obrázek

Kód: Vybrat vše

http://www.upnito.sk/download.php?dwToken=c44679921401ce6de62cdb3a2697877a
http://www.upnito.sk/download.php?dwToken=6c80bba81ffed2cb5a24904f30c70f64
http://www.upnito.sk/download.php?dwToken=2513cfc6d30aa6fd5c21da86046ce827
http://www.upnito.sk/download.php?dwToken=cba0ba604b388e4feffb8235eb8c005e
Obrázek
Obrázek
FenryMaja
Pilot
Pilot
Příspěvky: 2017
Registrován: 23 čer 2008 19:34
Dal poděkování: 234 poděkování
Dostal poděkování: 146 poděkování

Re: Vinnetou ( 1 až 16 ) český dabing

Příspěvek od FenryMaja » 07 črc 2009 20:25

Vinnetou a Old Firehand / Winnetou: Thunder at the Border (1966)
Western / Dobrodružný
Západní Německo / Jugoslávie, 98 min


Obrázek

Kód: Vybrat vše

http://www.csfd.cz/film/33366

Kód: Vybrat vše

General
Complete name                    : VAOF-FenryMaja\Vinetou a OLD Firehand.avi
Format                           : AVI
Format/Info                      : Audio Video Interleave
File size                        : 700 MiB
Duration                         : 1h 30mn
Overall bit rate                 : 1 081 Kbps
Writing application              : VirtualDubMod 1.5.4.1 (build 2178/release)
Writing library                  : VirtualDubMod build 2178/release

Video
Format                           : MPEG-4 Visual
Format settings, BVOP            : Yes
Format settings, QPel            : No
Format settings, GMC             : No warppoints
Format settings, Matrix          : Default
Muxing mode                      : Packed bitstream
Codec ID                         : DX50
Codec ID/Hint                    : DivX 5
Duration                         : 1h 30mn
Bit rate                         : 946 Kbps
Width                            : 640 pixels
Height                           : 288 pixels
Display aspect ratio             : 2.222
Frame rate                       : 25.000 fps
Resolution                       : 24 bits
Colorimetry                      : 4:2:0
Scan type                        : Progressive
Bits/(Pixel*Frame)               : 0.205
Stream size                      : 613 MiB (87%)
Writing library                  : DivX 6.6.1.4

Audio
Format                           : MPEG Audio
Format version                   : Version 1
Format profile                   : Layer 3
Codec ID                         : 55
Codec ID/Hint                    : MP3
Duration                         : 1h 30mn
Bit rate mode                    : Constant
Bit rate                         : 128 Kbps
Minimum bit rate                 : 128 Kbps
Channel(s)                       : 2 channels
Sampling rate                    : 48.0 KHz
Resolution                       : 16 bits
Stream size                      : 82.9 MiB (12%)
Alignment                        : Aligned on interleaves
Interleave, duration             : 80 ms (2.00 video frames)
Interleave, preload duration     : 504 ms
Writing library                  : LAME3.97 
Encoding settings                : CBR
Obrázek

Kód: Vybrat vše

http://czshare.com/751555/lGj0/VAOF_FenryMaja.part1.rar
http://czshare.com/751345/ReBC/VAOF_FenryMaja.part2.rar
http://czshare.com/751347/53aQ/VAOF_FenryMaja.part3.rar
http://czshare.com/751348/I7tx/VAOF_FenryMaja.part4.rar
Obrázek

Kód: Vybrat vše

http://www.filefactory.com/file/ag29bc4/n/VAOF-FenryMaja_part1_rar
http://www.filefactory.com/file/ag29bdh/n/VAOF-FenryMaja_part2_rar
http://www.filefactory.com/file/ag29bd5/n/VAOF-FenryMaja_part3_rar
http://www.filefactory.com/file/ag29bea/n/VAOF-FenryMaja_part4_rar
Obrázek

Kód: Vybrat vše

http://download.cz.hellshare.com/vaof-fenrymaja-part1.rar/375108
http://download.cz.hellshare.com/vaof-fenrymaja-part2.rar/375112
http://download.cz.hellshare.com/vaof-fenrymaja-part3.rar/375114
http://download.cz.hellshare.com/vaof-fenrymaja-part4.rar/375115
Obrázek

Kód: Vybrat vše

http://rapidshare.com/files/238494795/VAOF-FenryMaja.part1.rar.html
http://rapidshare.com/files/238495014/VAOF-FenryMaja.part2.rar.html
http://rapidshare.com/files/238495225/VAOF-FenryMaja.part3.rar.html
http://rapidshare.com/files/238495374/VAOF-FenryMaja.part4.rar.html
Obrázek

Kód: Vybrat vše

http://share-rapid.com/stahuj/191694/vaof-fenrymaja-part1.rar
http://share-rapid.com/stahuj/191695/vaof-fenrymaja-part2.rar
http://share-rapid.com/stahuj/191696/vaof-fenrymaja-part3.rar
http://share-rapid.com/stahuj/191697/vaof-fenrymaja-part4.rar
Obrázek

Kód: Vybrat vše

http://www.uloz.cz/show/file/105616-VAOF-FenryMaja.part1.rar
http://www.uloz.cz/show/file/105617-VAOF-FenryMaja.part2.rar
http://www.uloz.cz/show/file/105618-VAOF-FenryMaja.part3.rar
http://www.uloz.cz/show/file/105619-VAOF-FenryMaja.part4.rar
Obrázek

Kód: Vybrat vše

http://uloz.to/1853962/vaof-fenrymaja.part1.rar
http://uloz.to/1853968/vaof-fenrymaja.part2.rar
http://uloz.to/1853969/vaof-fenrymaja.part3.rar
http://uloz.to/1853973/vaof-fenrymaja.part4.rar
Obrázek

Kód: Vybrat vše

http://www.upnito.sk/download.php?dwToken=f5696366b8e7416c0f876026f5de0429
http://www.upnito.sk/download.php?dwToken=b717deb24ff515a69025e8aa4043efea
http://www.upnito.sk/download.php?dwToken=f04e8bf0d9f2dd6d12c00c0a6a6dcf66
http://www.upnito.sk/download.php?dwToken=e7db7d81e69c9f2740349bfa7ec925e0
Obrázek
Obrázek
FenryMaja
Pilot
Pilot
Příspěvky: 2017
Registrován: 23 čer 2008 19:34
Dal poděkování: 234 poděkování
Dostal poděkování: 146 poděkování

Re: Vinnetou ( 1 až 16 ) český dabing

Příspěvek od FenryMaja » 07 črc 2009 20:25

Vinnetou a Old Shatterhand V údolí Smrti / Winnetou und Shatterhand im Tal der Toten (1968)
Western / Dobrodružný
Západní Německo / Itálie / Jugoslávie, 89 min


Obrázek

Kód: Vybrat vše

http://www.csfd.cz/film/33367

Kód: Vybrat vše

General
Complete name                    : VAOVUS-FenryMaja\vinetou a old setrhand v udolí smrti.avi
Format                           : AVI
Format/Info                      : Audio Video Interleave
File size                        : 700 MiB
Duration                         : 1h 25mn
Overall bit rate                 : 1 144 Kbps
Writing application              : VirtualDubMod 1.5.4.1 (build 2178/release)
Writing library                  : VirtualDubMod build 2178/release

Video
Format                           : MPEG-4 Visual
Format settings, BVOP            : Yes
Format settings, QPel            : No
Format settings, GMC             : No warppoints
Format settings, Matrix          : Default
Codec ID                         : DX50
Codec ID/Hint                    : DivX 5
Duration                         : 1h 25mn
Bit rate                         : 1 008 Kbps
Width                            : 640 pixels
Height                           : 288 pixels
Display aspect ratio             : 2.222
Frame rate                       : 25.000 fps
Resolution                       : 24 bits
Colorimetry                      : 4:2:0
Scan type                        : Progressive
Bits/(Pixel*Frame)               : 0.219
Stream size                      : 617 MiB (88%)
Writing library                  : DivX 6.6.1.4

Audio
Format                           : MPEG Audio
Format version                   : Version 1
Format profile                   : Layer 3
Codec ID                         : 55
Codec ID/Hint                    : MP3
Duration                         : 1h 25mn
Bit rate mode                    : Constant
Bit rate                         : 128 Kbps
Minimum bit rate                 : 128 Kbps
Channel(s)                       : 2 channels
Sampling rate                    : 48.0 KHz
Resolution                       : 16 bits
Stream size                      : 78.4 MiB (11%)
Alignment                        : Aligned on interleaves
Interleave, duration             : 80 ms (2.00 video frames)
Interleave, preload duration     : 504 ms
Writing library                  : LAME3.97 
Encoding settings                : CBR
Obrázek

Kód: Vybrat vše

http://czshare.com/751349/P5C3/VAOVUS_FenryMaja.part1.rar
http://czshare.com/751351/5Kgm/VAOVUS_FenryMaja.part2.rar
http://czshare.com/751352/7_j8/VAOVUS_FenryMaja.part3.rar
http://czshare.com/751356/NRvT/VAOVUS_FenryMaja.part4.rar
Obrázek

Kód: Vybrat vše

http://www.filefactory.com/file/ag29be6/n/VAOVUS-FenryMaja_part1_rar
http://www.filefactory.com/file/ag29bff/n/VAOVUS-FenryMaja_part2_rar
http://www.filefactory.com/file/ag29bf0/n/VAOVUS-FenryMaja_part3_rar
http://www.filefactory.com/file/ag29bf5/n/VAOVUS-FenryMaja_part4_rar
Obrázek

Kód: Vybrat vše

http://download.cz.hellshare.com/vaovus-fenrymaja-part1.rar/375118
http://download.cz.hellshare.com/vaovus-fenrymaja-part2.rar/375119
http://download.cz.hellshare.com/vaovus-fenrymaja-part3.rar/375122
http://download.cz.hellshare.com/vaovus-fenrymaja-part4.rar/375124
Obrázek

Kód: Vybrat vše

http://rapidshare.com/files/238495649/VAOVUS-FenryMaja.part1.rar.html
http://rapidshare.com/files/238495843/VAOVUS-FenryMaja.part2.rar.html
http://rapidshare.com/files/238496027/VAOVUS-FenryMaja.part3.rar.html
http://rapidshare.com/files/238496164/VAOVUS-FenryMaja.part4.rar.html
Obrázek

Kód: Vybrat vše

http://share-rapid.com/stahuj/191699/vaovus-fenrymaja-part1.rar
http://share-rapid.com/stahuj/191700/vaovus-fenrymaja-part2.rar
http://share-rapid.com/stahuj/191701/vaovus-fenrymaja-part3.rar
http://share-rapid.com/stahuj/191702/vaovus-fenrymaja-part4.rar
Obrázek

Kód: Vybrat vše

http://www.uloz.cz/show/file/105621-VAOVUS-FenryMaja.part1.rar
http://www.uloz.cz/show/file/105622-VAOVUS-FenryMaja.part2.rar
http://www.uloz.cz/show/file/105623-VAOVUS-FenryMaja.part3.rar
http://www.uloz.cz/show/file/105624-VAOVUS-FenryMaja.part4.rar
Obrázek

Kód: Vybrat vše

http://uloz.to/1853976/vaovus-fenrymaja.part1.rar
http://uloz.to/1853983/vaovus-fenrymaja.part2.rar
http://uloz.to/1853986/vaovus-fenrymaja.part3.rar
http://uloz.to/1853987/vaovus-fenrymaja.part4.rar
Obrázek

Kód: Vybrat vše

http://www.upnito.sk/download.php?dwToken=84ddfd7eb8e8a33d865461081c81b197
http://www.upnito.sk/download.php?dwToken=aed519999c75e2870ec9500d049adfd0
http://www.upnito.sk/download.php?dwToken=88c85bcbc852998850a09f6750f2e0da
http://www.upnito.sk/download.php?dwToken=26e6ee6486d3a1545b47430d27b6ee7c
Obrázek
Obrázek
FenryMaja
Pilot
Pilot
Příspěvky: 2017
Registrován: 23 čer 2008 19:34
Dal poděkování: 234 poděkování
Dostal poděkování: 146 poděkování

Re: Vinnetou ( 1 až 16 ) český dabing

Příspěvek od FenryMaja » 07 črc 2009 20:25

V říši stříbrného lva / Im Reich des silbernen Löwen (1965)
Dobrodružný
Západní Německo / Španělsko, 95 min


Obrázek

Kód: Vybrat vše

http://www.csfd.cz/film/33382

Kód: Vybrat vše

General
Complete name                    : VRSL-FenryMaja\14 - V risi stribrneho lva.avi
Format                           : AVI
Format/Info                      : Audio Video Interleave
File size                        : 802 MiB
Duration                         : 1h 29mn
Overall bit rate                 : 1 250 Kbps
Writing application              : Nandub v1.0rc2
Writing library                  : Nandub build 1853/release

Video
Format                           : MPEG-4 Visual
Format settings, BVOP            : Yes
Format settings, QPel            : No
Format settings, GMC             : No warppoints
Format settings, Matrix          : Default
Muxing mode                      : Packed bitstream
Codec ID                         : DX50
Codec ID/Hint                    : DivX 5
Duration                         : 1h 29mn
Bit rate                         : 1 110 Kbps
Width                            : 552 pixels
Height                           : 288 pixels
Display aspect ratio             : 1.917
Frame rate                       : 25.000 fps
Resolution                       : 24 bits
Colorimetry                      : 4:2:0
Scan type                        : Progressive
Bits/(Pixel*Frame)               : 0.279
Stream size                      : 712 MiB (89%)
Writing library                  : DivX 5.2.1 (DrDivX 106) (UTC 2004-09-08)

Audio
Format                           : MPEG Audio
Format version                   : Version 1
Format profile                   : Layer 3
Codec ID                         : 55
Codec ID/Hint                    : MP3
Duration                         : 1h 29mn
Bit rate mode                    : Constant
Bit rate                         : 128 Kbps
Channel(s)                       : 2 channels
Sampling rate                    : 44.1 KHz
Resolution                       : 16 bits
Stream size                      : 82.1 MiB (10%)
Alignment                        : Aligned on interleaves
Interleave, duration             : 26 ms (0.65 video frame)
Interleave, preload duration     : 496 ms
Obrázek

Kód: Vybrat vše

http://czshare.com/751357/8oiV/VRSL_FenryMaja.part1.rar
http://czshare.com/751358/BdpS/VRSL_FenryMaja.part2.rar
http://czshare.com/751359/Fa7_/VRSL_FenryMaja.part3.rar
http://czshare.com/751361/j7L8/VRSL_FenryMaja.part4.rar
http://czshare.com/751362/k9s_/VRSL_FenryMaja.part5.rar
Obrázek

Kód: Vybrat vše

http://www.filefactory.com/file/ag29bgf/n/VRSL-FenryMaja_part1_rar
http://www.filefactory.com/file/ag29bh0/n/VRSL-FenryMaja_part2_rar
http://www.filefactory.com/file/ag29b01/n/VRSL-FenryMaja_part3_rar
http://www.filefactory.com/file/ag29b1c/n/VRSL-FenryMaja_part4_rar
http://www.filefactory.com/file/ag29b1e/n/VRSL-FenryMaja_part5_rar
Obrázek

Kód: Vybrat vše

http://download.cz.hellshare.com/vrsl-fenrymaja-part1.rar/375125
http://download.cz.hellshare.com/vrsl-fenrymaja-part2.rar/375127
http://download.cz.hellshare.com/vrsl-fenrymaja-part3.rar/375128
http://download.cz.hellshare.com/vrsl-fenrymaja-part4.rar/375130
http://download.cz.hellshare.com/vrsl-fenrymaja-part5.rar/375132
Obrázek

Kód: Vybrat vše

http://rapidshare.com/files/238496335/VRSL-FenryMaja.part1.rar.html
http://rapidshare.com/files/238496533/VRSL-FenryMaja.part2.rar.html
http://rapidshare.com/files/238496746/VRSL-FenryMaja.part3.rar.html
http://rapidshare.com/files/238496943/VRSL-FenryMaja.part4.rar.html
http://rapidshare.com/files/238496990/VRSL-FenryMaja.part5.rar.html
Obrázek

Kód: Vybrat vše

http://share-rapid.com/stahuj/191703/vrsl-fenrymaja-part1.rar
http://share-rapid.com/stahuj/191704/vrsl-fenrymaja-part2.rar
http://share-rapid.com/stahuj/191705/vrsl-fenrymaja-part3.rar
http://share-rapid.com/stahuj/191707/vrsl-fenrymaja-part4.rar
http://share-rapid.com/stahuj/191708/vrsl-fenrymaja-part5.rar
Obrázek

Kód: Vybrat vše

http://www.uloz.cz/show/file/105625-VRSL-FenryMaja.part1.rar
http://www.uloz.cz/show/file/105626-VRSL-FenryMaja.part2.rar
http://www.uloz.cz/show/file/105627-VRSL-FenryMaja.part3.rar
http://www.uloz.cz/show/file/105628-VRSL-FenryMaja.part4.rar
http://www.uloz.cz/show/file/105629-VRSL-FenryMaja.part5.rar
Obrázek

Kód: Vybrat vše

http://uloz.to/1853992/vrsl-fenrymaja.part1.rar
http://uloz.to/1854001/vrsl-fenrymaja.part2.rar
http://uloz.to/1854004/vrsl-fenrymaja.part3.rar
http://uloz.to/1854006/vrsl-fenrymaja.part4.rar
http://uloz.to/1854008/vrsl-fenrymaja.part5.rar
Obrázek

Kód: Vybrat vše

http://www.upnito.sk/download.php?dwToken=91d0e3ffc8552871836ce5b5f7fac8b9
http://www.upnito.sk/download.php?dwToken=68d07b9d9047d5ad016f097595c981e3
http://www.upnito.sk/download.php?dwToken=20bc0710f98db0a72af38bc51806f6f3
http://www.upnito.sk/download.php?dwToken=c5641ad120d8fa72d8d513d9ad0f693f
http://www.upnito.sk/download.php?dwToken=d63c50782bdb46028d5774d1caa7dfab
Obrázek
Obrázek
FenryMaja
Pilot
Pilot
Příspěvky: 2017
Registrován: 23 čer 2008 19:34
Dal poděkování: 234 poděkování
Dostal poděkování: 146 poděkování

Re: Vinnetou ( 1 až 16 ) český dabing

Příspěvek od FenryMaja » 07 črc 2009 20:26

Vinnetou se vrací / Winnetous Rückkehr (1998)
Western
Německo, 2x85 min


TV RIP

Obrázek

Kód: Vybrat vše

http://www.csfd.cz/film/29250

Kód: Vybrat vše

Díl 1

General
Complete name                    : VSV-FenryMaja\Vinnetou_se_vraci.avi
Format                           : DivX
Format/Info                      : Hack of AVI
File size                        : 701 MiB
Duration                         : 1h 26mn
Overall bit rate                 : 1 135 Kbps

Video
Format                           : MPEG-4 Visual
Format settings, BVOP            : Yes
Format settings, QPel            : No
Format settings, GMC             : No warppoints
Format settings, Matrix          : Default
Muxing mode                      : Packed bitstream
Codec ID                         : DX50
Codec ID/Hint                    : DivX 5
Duration                         : 1h 26mn
Bit rate                         : 997 Kbps
Width                            : 720 pixels
Height                           : 480 pixels
Display aspect ratio             : 1.500
Frame rate                       : 25.000 fps
Standard                         : NTSC
Resolution                       : 24 bits
Colorimetry                      : 4:2:0
Scan type                        : Progressive
Bits/(Pixel*Frame)               : 0.115
Stream size                      : 616 MiB (88%)
Title                            : Video
Writing library                  : DivX 6.2.5 (UTC 2006-06-16)

Audio
Format                           : MPEG Audio
Format version                   : Version 1
Format profile                   : Layer 3
Codec ID                         : 55
Codec ID/Hint                    : MP3
Duration                         : 1h 26mn
Bit rate mode                    : Constant
Bit rate                         : 128 Kbps
Channel(s)                       : 2 channels
Sampling rate                    : 44.1 KHz
Resolution                       : 16 bits
Stream size                      : 79.0 MiB (11%)
Alignment                        : Split accross interleaves
Interleave, duration             : 40 ms (1.00 video frame)
Interleave, preload duration     : 50 ms
Title                            : Audio
Obrázek

Kód: Vybrat vše

http://czshare.com/751365/7D_3/VSV_FenryMaja.part1.rar
http://czshare.com/751367/w_r6/VSV_FenryMaja.part2.rar
http://czshare.com/751368/J3OK/VSV_FenryMaja.part3.rar
http://czshare.com/751369/0n3v/VSV_FenryMaja.part4.rar
Obrázek

Kód: Vybrat vše

http://www.filefactory.com/file/ag29b4d/n/VSV-FenryMaja_part1_rar
http://www.filefactory.com/file/ag29b43/n/VSV-FenryMaja_part2_rar
http://www.filefactory.com/file/ag29b59/n/VSV-FenryMaja_part3_rar
http://www.filefactory.com/file/ag29b62/n/VSV-FenryMaja_part4_rar
Obrázek

Kód: Vybrat vše

http://download.cz.hellshare.com/vsv-fenrymaja-part1.rar/375142
http://download.cz.hellshare.com/vsv-fenrymaja-part2.rar/375144
http://download.cz.hellshare.com/vsv-fenrymaja-part3.rar/375145
http://download.cz.hellshare.com/vsv-fenrymaja-part4.rar/375146
Obrázek

Kód: Vybrat vše

http://rapidshare.com/files/238498086/VSV-FenryMaja.part1.rar.html
http://rapidshare.com/files/238498395/VSV-FenryMaja.part2.rar.html
http://rapidshare.com/files/238498605/VSV-FenryMaja.part3.rar.html
http://rapidshare.com/files/238498733/VSV-FenryMaja.part4.rar.html
Obrázek

Kód: Vybrat vše

http://share-rapid.com/stahuj/191715/vsv-fenrymaja-part1.rar
http://share-rapid.com/stahuj/191716/vsv-fenrymaja-part2.rar
http://share-rapid.com/stahuj/191718/vsv-fenrymaja-part3.rar
http://share-rapid.com/stahuj/191720/vsv-fenrymaja-part4.rar
Obrázek

Kód: Vybrat vše

http://www.uloz.cz/show/file/105635-VSV-FenryMaja.part1.rar
http://www.uloz.cz/show/file/105636-VSV-FenryMaja.part2.rar
http://www.uloz.cz/show/file/105637-VSV-FenryMaja.part3.rar
http://www.uloz.cz/show/file/105638-VSV-FenryMaja.part4.rar
Obrázek

Kód: Vybrat vše

http://uloz.to/1854021/vsv-fenrymaja.part1.rar
http://uloz.to/1854022/vsv-fenrymaja.part2.rar
http://uloz.to/1854024/vsv-fenrymaja.part3.rar
http://uloz.to/1854027/vsv-fenrymaja.part4.rar
Obrázek

Kód: Vybrat vše

http://www.upnito.sk/download.php?dwToken=0e1eafefb7f2aa3d9a329794cbe8585a
http://www.upnito.sk/download.php?dwToken=8ad31b1097ef1c7208d7270fda6a9f44
http://www.upnito.sk/download.php?dwToken=6e9d6f69503b4ff1eedead9db6b29b7a
http://www.upnito.sk/download.php?dwToken=0904dd6d085fc97adace26430d2a1a95

Kód: Vybrat vše

Díl 2

General
Complete name                    : VSV2-FenryMaja\Vinnetou_se_vrací_2.avi
Format                           : DivX
Format/Info                      : Hack of AVI
File size                        : 701 MiB
Duration                         : 1h 26mn
Overall bit rate                 : 1 136 Kbps

Video
Format                           : MPEG-4 Visual
Format settings, BVOP            : Yes
Format settings, QPel            : No
Format settings, GMC             : No warppoints
Format settings, Matrix          : Default
Muxing mode                      : Packed bitstream
Codec ID                         : DX50
Codec ID/Hint                    : DivX 5
Duration                         : 1h 26mn
Bit rate                         : 999 Kbps
Width                            : 720 pixels
Height                           : 480 pixels
Display aspect ratio             : 1.500
Frame rate                       : 25.000 fps
Standard                         : NTSC
Resolution                       : 24 bits
Colorimetry                      : 4:2:0
Scan type                        : Progressive
Bits/(Pixel*Frame)               : 0.116
Stream size                      : 616 MiB (88%)
Title                            : Video
Writing library                  : DivX 6.2.5 (UTC 2006-06-16)

Audio
Format                           : MPEG Audio
Format version                   : Version 1
Format profile                   : Layer 3
Codec ID                         : 55
Codec ID/Hint                    : MP3
Duration                         : 1h 26mn
Bit rate mode                    : Constant
Bit rate                         : 128 Kbps
Channel(s)                       : 2 channels
Sampling rate                    : 44.1 KHz
Resolution                       : 16 bits
Stream size                      : 79.0 MiB (11%)
Alignment                        : Split accross interleaves
Interleave, duration             : 40 ms (1.00 video frame)
Interleave, preload duration     : 50 ms
Title                            : Audio

Kód: Vybrat vše

http://czshare.com/751354/Mye0/VSV2_FenryMaja.part1.rar
http://czshare.com/751355/Bqe8/VSV2_FenryMaja.part2.rar
http://czshare.com/751363/tqFy/VSV2_FenryMaja.part3.rar
http://czshare.com/751364/2aVF/VSV2_FenryMaja.part4.rar
Obrázek

Kód: Vybrat vše

http://www.filefactory.com/file/ag29b16/n/VSV2-FenryMaja_part1_rar
http://www.filefactory.com/file/ag29b2f/n/VSV2-FenryMaja_part2_rar
http://www.filefactory.com/file/ag29b3e/n/VSV2-FenryMaja_part3_rar
http://www.filefactory.com/file/ag29b35/n/VSV2-FenryMaja_part4_rar
Obrázek

Kód: Vybrat vše

http://download.cz.hellshare.com/vsv2-fenrymaja-part1.rar/375136
http://download.cz.hellshare.com/vsv2-fenrymaja-part2.rar/375138
http://download.cz.hellshare.com/vsv2-fenrymaja-part3.rar/375139
http://download.cz.hellshare.com/vsv2-fenrymaja-part4.rar/375140
Obrázek

Kód: Vybrat vše

http://rapidshare.com/files/238497226/VSV2-FenryMaja.part1.rar.html
http://rapidshare.com/files/238497432/VSV2-FenryMaja.part2.rar.html
http://rapidshare.com/files/238497674/VSV2-FenryMaja.part3.rar.html
http://rapidshare.com/files/238497837/VSV2-FenryMaja.part4.rar.html
Obrázek

Kód: Vybrat vše

http://share-rapid.com/stahuj/191709/vsv2-fenrymaja-part1.rar
http://share-rapid.com/stahuj/191710/vsv2-fenrymaja-part2.rar
http://share-rapid.com/stahuj/191712/vsv2-fenrymaja-part3.rar
http://share-rapid.com/stahuj/191714/vsv2-fenrymaja-part4.rar
Obrázek

Kód: Vybrat vše

http://www.uloz.cz/show/file/105630-VSV2-FenryMaja.part1.rar
http://www.uloz.cz/show/file/105632-VSV2-FenryMaja.part2.rar
http://www.uloz.cz/show/file/105633-VSV2-FenryMaja.part3.rar
http://www.uloz.cz/show/file/105634-VSV2-FenryMaja.part4.rar
Obrázek

Kód: Vybrat vše

http://uloz.to/1854009/vsv2-fenrymaja.part1.rar
http://uloz.to/1854015/vsv2-fenrymaja.part2.rar
http://uloz.to/1854016/vsv2-fenrymaja.part3.rar
http://uloz.to/1854020/vsv2-fenrymaja.part4.rar
Obrázek

Kód: Vybrat vše

http://www.upnito.sk/download.php?dwToken=ea42c908423e0559b41c6937a2949e60
http://www.upnito.sk/download.php?dwToken=048a2d39221fd62ad57a229cab8a3e6d
http://www.upnito.sk/download.php?dwToken=5af2d89449d0ee1d14a4c01c6369d200
http://www.upnito.sk/download.php?dwToken=2c95431dbd090392c794b8b15df9af23
Obrázek
Obrázek
Uživatelský avatar
finch!CZ
V.I.P
V.I.P
Příspěvky: 1041
Registrován: 03 pro 2008 17:27
Bydliště: /dev/null
Dal poděkování: 12 poděkování
Dostal poděkování: 44 poděkování

Vinnetou ( 1 až 16 ) český dabing

Příspěvek od finch!CZ » 11 dub 2011 18:04

Vinnetou a Old Firehand (66)

Obrázek

Kód: Vybrat vše

http://www.csfd.cz/film/33366-old-firehand/

Kód: Vybrat vše

http://www.uloz.to/8616414/vinnetou-a-old-firehand-1966-avi



------------------------------------------------------------------------------------------------------------


Vinnetou - Poklad na Stříbrném jezeře

Obrázek

Kód: Vybrat vše

http://www.csfd.cz/film/33360-poklad-na-stribrnem-jezere/

Kód: Vybrat vše

http://www.uloz.to/8616620/vinnetou-poklad-na-stribrnem-jezere-western-dobrodruzny-avi
Obrázek

Obrázek
Odpovědět

Zpět na „Filmové sbírky“