James Bond - kompletní kolekce

Kolekce, které si tvoříte sami

Moderátor: KlopuX

Uživatelský avatar
miki7811
Post man
Post man
Příspěvky: 6252
Registrován: 26 lis 2008 17:37
Dal poděkování: 1 poděkování
Dostal poděkování: 98 poděkování

James Bond / Complet Collection /

Příspěvek od miki7811 » 13 kvě 2011 15:41

Moonraker (1979)
Obrázek
AKTUÁLNĚ - 74%
Obrázek

Kód: Vybrat vše

http://www.csfd.cz/film/30437-moonraker/
Obsah:
Akční / Sci-Fi / Romantický

Velká Británie / Francie / USA, 1979, 126 min
Režie: Lewis Gilbert
Hrají: Roger Moore, Lois Chiles, Michael Lonsdale, Richard Kiel, Corinne Clery, Bernard Lee, Geoffrey Keen, Desmond Llewelyn, Lois Maxwell, Mike Marshall, Jean-Pierre Castaldi, Walter Gotell, Alfie Bass, Claude Carliez, Lewis Gilbert


Raketoplán Moonraker unesou při letecké přepravě přímo ze vzduchu. James Bond (Roger Moore) se při pátrání dostává do Draxova průmyslového závodu. Tady zjišťuje, že Hugo Drax (Michael Lonsdale) vyvinul nervový plyn, který by dokázal vyhubit veškeré lidstvo. Fanatický průmyslník sní o orbitálním městě obývaném nadlidmi. Má v plánu vyhubit populaci plynem a vybudovat novou civilizaci pod svojí nadvládou. Agent 007 se svým americkým partnerem se připravují na vesmírnou bitvu. Když už jsou přesvědčeni, že je všechno na dobré cestě, dostává se jim na stopu starý Bondův nepřítel, nezničitelný obr s ocelovými zuby Čelisti (Richard Kiel).
Obrázek

Obrázek
General
Complete name : Z:\DVD UPLOAD\Moonraker (1979).avi
Format : AVI
Format/Info : Audio Video Interleave
File size : 695 MiB
Duration : 2h 1mn
Overall bit rate : 802 Kbps
Writing library : VirtualDub build 30016/release

Video
ID : 0
Format : MPEG-4 Visual
Format settings, BVOP : Yes
Format settings, QPel : No
Format settings, GMC : No warppoints
Format settings, Matrix : Default (H.263)
Muxing mode : Packed bitstream
Codec ID : DX50
Codec ID/Hint : DivX 5
Duration : 2h 1mn
Bit rate : 664 Kbps
Width : 720 pixels
Height : 304 pixels
Display aspect ratio : 2.35:1
Frame rate : 25.000 fps
Color space : YUV
Chroma subsampling : 4:2:0
Bit depth : 8 bits
Scan type : Progressive
Bits/(Pixel*Frame) : 0.121
Stream size : 576 MiB (83%)
Writing library : DivX 6.2.5 (UTC 2006-07)

Audio
ID : 1
Format : MPEG Audio
Format version : Version 1
Format profile : Layer 3
Mode : Joint stereo
Mode extension : MS Stereo
Codec ID : 55
Codec ID/Hint : MP3
Duration : 2h 1mn
Bit rate mode : Constant
Bit rate : 128 Kbps
Channel(s) : 2 channels
Sampling rate : 48.0 KHz
Stream size : 111 MiB (16%)
Alignment : Split accross interleaves
Interleave, duration : 40 ms (1.00 video frame)
Interleave, preload duration : 500 ms
Writing library : LAME3.97 (beta)
Obrázek

Kód: Vybrat vše

http://share-rapid.com/stahuj/2286629/james-bond-007-moonraker-1979-dvdrip-cz.rar
Bez hesla
Přidán záznam na opravu dat 5%
jkviper
Kachna
Kachna
Příspěvky: 1
Registrován: 31 črc 2016 11:29

James Bond - kompletní kolekce

Příspěvek od jkviper » 31 črc 2016 11:37

Mohl bych poprosit o reupload kompletní série na Share-rapid tak jak to je v minulých postech? Moc děkuji...
Odpovědět

Zpět na „Filmové sbírky“