James Bond - kompletní kolekce

Kolekce, které si tvoříte sami

Moderátor: KlopuX

Uživatelský avatar
miki7811
Post man
Post man
Příspěvky: 6252
Registrován: 26 lis 2008 17:37
Dal poděkování: 1 poděkování
Dostal poděkování: 98 poděkování

James Bond / Complet Collection /

Příspěvek od miki7811 » 10 kvě 2011 19:10

Zlaté oko
GoldenEye (1995)

Obrázek
AKTUÁLNĚ - 79%
Obrázek

Kód: Vybrat vše

http://www.csfd.cz/film/10644-zlate-oko/
Obsah:
Akční / Krimi / Thriller / Dobrodružný

Velká Británie / USA, 1995, 130 min
Režie: Martin Campbell
Hrají: Pierce Brosnan, Sean Bean, Izabella Scorupco, Famke Janssen, Joe Don Baker, Judi Dench, Robbie Coltrane, Tchéky Karyo, Gottfried John, Alan Cumming, Desmond Llewelyn, Samantha Bond, Michael Kitchen, Minnie Driver, Martin Campbell, Simon Crane


Když James Bond před několika lety likvidoval s agentem 006 Alecem sovětskou továrnu na biochemické zbraně, netušil, že se s účastníky téhle destruktivní mise opět po létech setká. Bývalý velitel vojenské ochranky generál Urumov teď tvoří výkonný tandem se smrtelně nebezpečnou nymfomankou Xenií - oba jsou na výplatní listině ruské mafie. A tahle organizace se právě zmocnila vojenského útočného sateliu Zlaté oko, kterým může terorizovat svět. Britská tajná služba vyhlašuje stav ohrožení a madam M vysílá do akce svého nejlepšího muže, agenta 007...
Obrázek

Obrázek
General
Complete name : Z:\DVD UPLOAD\Zlaté oko (1995).avi
Format : AVI
Format/Info : Audio Video Interleave
File size : 1.35 GiB
Duration : 2h 4mn
Overall bit rate : 1 548 Kbps
Writing application : VirtualDubMod 1.5.10.1 (build 2366/release)
Writing library : VirtualDubMod build 2366/release

Video
ID : 0
Format : MPEG-4 Visual
Format settings, BVOP : Yes
Format settings, QPel : No
Format settings, GMC : No warppoints
Format settings, Matrix : Default (H.263)
Muxing mode : Packed bitstream
Codec ID : DX50
Codec ID/Hint : DivX 5
Duration : 2h 4mn
Bit rate : 1 090 Kbps
Width : 720 pixels
Height : 304 pixels
Display aspect ratio : 2.35:1
Frame rate : 25.000 fps
Color space : YUV
Chroma subsampling : 4:2:0
Bit depth : 8 bits
Scan type : Progressive
Bits/(Pixel*Frame) : 0.199
Stream size : 972 MiB (70%)
Writing library : DivX 6.2.5 (UTC 2006-07)

Audio
ID : 1
Format : AC-3
Format/Info : Audio Coding 3
Mode extension : CM (complete main)
Codec ID : 2000
Duration : 2h 4mn
Bit rate mode : Constant
Bit rate : 448 Kbps
Channel(s) : 6 channels
Channel positions : Front: L C R, Side: L R, LFE
Sampling rate : 48.0 KHz
Bit depth : 16 bits
Stream size : 399 MiB (29%)
Alignment : Split accross interleaves
Interleave, duration : 40 ms (1.00 video frame)
Interleave, preload duration : 500 ms
Obrázek

Kód: Vybrat vše

http://share-rapid.com/stahuj/2275636/james-bond-007-zlate-oko-1995-dvdrip-cz-5-1-part1.rar
http://share-rapid.com/stahuj/2276075/james-bond-007-zlate-oko-1995-dvdrip-cz-5-1-part2.rar
Bez hesla
Přidán záznam na opravu dat 5%
Uživatelský avatar
miki7811
Post man
Post man
Příspěvky: 6252
Registrován: 26 lis 2008 17:37
Dal poděkování: 1 poděkování
Dostal poděkování: 98 poděkování

James Bond / Complet Collection /

Příspěvek od miki7811 » 10 kvě 2011 19:14

Zítřek nikdy neumírá
Tomorrow Never Dies (1997)

Obrázek
AKTUÁLNĚ - 70%
Obrázek

Kód: Vybrat vše

http://www.csfd.cz/film/11053-zitrek-nikdy-neumira/
Obsah:
Akční / Dobrodružný / Thriller

Velká Británie / USA, 1997, 119 min
Režie: Roger Spottiswoode
Hrají: Pierce Brosnan, Jonathan Pryce, Michelle Yeoh, Teri Hatcher, Ricky Jay, Götz Otto, Joe Don Baker, Vincent Schiavelli, Judi Dench, Desmond Llewelyn, Samantha Bond, Colin Salmon, Geoffrey Palmer, Julian Fellowes, Colin Stinton, Philip Kwok, Christopher Bowen, Gerard Butler, Michael Byrne, Hugh Bonneville, Brendan Coyle, Rolf Saxon, Anthony Green, Eoin McCarthy


Když se bezohledný mediální magnát (Jonathan Pryce) pokouší destabilizovat světovou ekonomiku přípravou střetu dvou velmocí, jen aby zvýšil zisk svého podniku, musí zasáhnout Bond a zabránit rozpoutání 3. světové války! I díky úchvatné Teri Hatcher a Michelle Yeoh potěší toto supermoderní akční dobrodružství bondovské fanoušky všech generací!
Obrázek

Obrázek
General
Complete name : Z:\DVD UPLOAD\Zítřek nikdy neumírá (1997).avi
Format : AVI
Format/Info : Audio Video Interleave
File size : 1.32 GiB
Duration : 1h 54mn
Overall bit rate : 1 658 Kbps
Writing application : VirtualDubMod 1.5.10.1 (build 2366/release)
Writing library : VirtualDubMod build 2366/release

Video
ID : 0
Format : MPEG-4 Visual
Format settings, BVOP : Yes
Format settings, QPel : No
Format settings, GMC : No warppoints
Format settings, Matrix : Default (H.263)
Muxing mode : Packed bitstream
Codec ID : DX50
Codec ID/Hint : DivX 5
Duration : 1h 54mn
Bit rate : 1 201 Kbps
Width : 720 pixels
Height : 304 pixels
Display aspect ratio : 2.35:1
Frame rate : 25.000 fps
Color space : YUV
Chroma subsampling : 4:2:0
Bit depth : 8 bits
Scan type : Progressive
Bits/(Pixel*Frame) : 0.219
Stream size : 982 MiB (72%)
Writing library : DivX 6.2.5 (UTC 2006-07)

Audio
ID : 1
Format : AC-3
Format/Info : Audio Coding 3
Mode extension : CM (complete main)
Codec ID : 2000
Duration : 1h 54mn
Bit rate mode : Constant
Bit rate : 448 Kbps
Channel(s) : 6 channels
Channel positions : Front: L C R, Side: L R, LFE
Sampling rate : 48.0 KHz
Bit depth : 16 bits
Stream size : 366 MiB (27%)
Alignment : Split accross interleaves
Interleave, duration : 40 ms (1.00 video frame)
Interleave, preload duration : 500 ms
Obrázek

Kód: Vybrat vše

http://share-rapid.com/stahuj/2275184/james-bond-007-zitrek-nikdy-neumira-1997-dvdrip-cz-5-1-part1.rar
http://share-rapid.com/stahuj/2275341/james-bond-007-zitrek-nikdy-neumira-1997-dvdrip-cz-5-1-part2.rar
Bez hesla
Přidán záznam na opravu dat 5%
Uživatelský avatar
miki7811
Post man
Post man
Příspěvky: 6252
Registrován: 26 lis 2008 17:37
Dal poděkování: 1 poděkování
Dostal poděkování: 98 poděkování

James Bond / Complet Collection /

Příspěvek od miki7811 » 10 kvě 2011 19:28

Jeden svět nestačí
World Is Not Enough, The (1999)

Obrázek
AKTUÁLNĚ - 76%
Obrázek

Kód: Vybrat vše

http://www.csfd.cz/film/297-jeden-svet-nestaci/
Obsah:
Akční / Thriller / Dobrodružný

Velká Británie / USA, 1999, 128 min
Režie: Michael Apted
Hrají: Pierce Brosnan, Sophie Marceau, Robert Carlyle, Denise Richards, Robbie Coltrane, Judi Dench, Desmond Llewelyn, John Cleese, Maria Grazia Cucinotta, Samantha Bond, Michael Kitchen, Colin Salmon, Serena Scott Thomas, Ulrich Thomsen, Patrick Malahide, Omid Djalili, Justus von Dohnányi, Daisy Beaumont, Daz Crawford


V sídle MI6 došlo k atentátu na ropného magnáta a přítele M a v nebezpečí se ocitá i jeho dcera Elektra (Sophie Marceau). James Bond je proto vyslán do Azerbajdžánu, aby ji ochránil a zároveň odhalil vraha. Elektra ale ve skutečnosti stojí na druhé straně barikády a Bondovu ochranu přijímá pouze na oko. Spolu s přítelem, nebezpečným teroristou (Robert Carlyle), plánují neobyčejně výnosný obchod, kterým chtějí získat kontrolu nad celým světem. Ani v této bondově misi nechybí správná Bondgirl v podání krásné Denise Richards.
Obrázek

Obrázek
General
Complete name : Z:\DVD UPLOAD\Jeden svět nestačí (1999).avi
Format : AVI
Format/Info : Audio Video Interleave
File size : 1.34 GiB
Duration : 2h 3mn
Overall bit rate : 1 558 Kbps
Writing application : VirtualDubMod 1.5.10.1 (build 2366/release)
Writing library : VirtualDubMod build 2366/release

Video
ID : 0
Format : MPEG-4 Visual
Format settings, BVOP : Yes
Format settings, QPel : No
Format settings, GMC : No warppoints
Format settings, Matrix : Default (H.263)
Muxing mode : Packed bitstream
Codec ID : DX50
Codec ID/Hint : DivX 5
Duration : 2h 3mn
Bit rate : 1 100 Kbps
Width : 720 pixels
Height : 304 pixels
Display aspect ratio : 2.35:1
Frame rate : 25.000 fps
Color space : YUV
Chroma subsampling : 4:2:0
Bit depth : 8 bits
Scan type : Progressive
Bits/(Pixel*Frame) : 0.201
Stream size : 969 MiB (71%)
Writing library : DivX 6.2.5 (UTC 2006-07)

Audio
ID : 1
Format : AC-3
Format/Info : Audio Coding 3
Mode extension : CM (complete main)
Codec ID : 2000
Duration : 2h 3mn
Bit rate mode : Constant
Bit rate : 448 Kbps
Channel(s) : 6 channels
Channel positions : Front: L C R, Side: L R, LFE
Sampling rate : 48.0 KHz
Bit depth : 16 bits
Stream size : 394 MiB (29%)
Alignment : Split accross interleaves
Interleave, duration : 40 ms (1.00 video frame)
Interleave, preload duration : 500 ms
Obrázek

Kód: Vybrat vše

http://share-rapid.com/stahuj/2271158/james-bond-007-jeden-svet-nestaci-1999-dvdrip-cz-5-1-part1.rar
http://share-rapid.com/stahuj/2271896/james-bond-007-jeden-svet-nestaci-1999-dvdrip-cz-5-1-part2.rar
Bez hesla
Přidán záznam na opravu dat 5%
Uživatelský avatar
miki7811
Post man
Post man
Příspěvky: 6252
Registrován: 26 lis 2008 17:37
Dal poděkování: 1 poděkování
Dostal poděkování: 98 poděkování

James Bond / Complet Collection /

Příspěvek od miki7811 » 10 kvě 2011 19:33

Thunderball (1965)
Obrázek
AKTUÁLNĚ - 80%
Obrázek

Kód: Vybrat vše

http://www.csfd.cz/film/11552-thunderball/
Obsah:
Akční / Dobrodružný / Thriller

Velká Británie / USA, 1965, 130 min
Režie: Terence Young
Hrají: Sean Connery, Claudine Auger, Adolfo Celi, Luciana Paluzzi, Desmond Llewelyn, Lois Maxwell, Roland Culver, Kevin McClory, Bernard Lee, Anthony Dawson, Jiří Pravda, Suzy Kendall, Philip Stone


Neznámý muž pronikne mezi osádku britského vojenského letadla, zneškodní ji a přistane na moři. Podaří se mu získat dvě atomové bomby pro muže, který je využije k vydírání Velké Británie. Požaduje do dvou dnů sto miliónů liber v diamantech. Bondovi nezbývá, než aby přerušil své léčení a vydal se pod mořskou hladinu, kam nebezpečný zločinec ukryl ukradené zbraně. Pro svoji výpravu samozřejmě získá půvabnou průvodkyni. Stejně jako v dalších dílech se ani v THUNDERBALLU nenechal Sean Connery při natáčení kaskadérských scén zastupovat.
Obrázek

Obrázek
General
Complete name : Z:\DVD UPLOAD\Thunderball (1965).avi
Format : AVI
Format/Info : Audio Video Interleave
File size : 1.28 GiB
Duration : 2h 4mn
Overall bit rate : 1 466 Kbps
Writing library : VirtualDub build 24469/release

Video
ID : 0
Format : MPEG-4 Visual
Format settings, BVOP : Yes
Format settings, QPel : No
Format settings, GMC : No warppoints
Format settings, Matrix : Default (H.263)
Muxing mode : Packed bitstream
Codec ID : DX50
Codec ID/Hint : DivX 5
Duration : 2h 4mn
Bit rate : 1 328 Kbps
Width : 720 pixels
Height : 400 pixels
Display aspect ratio : 16:9
Frame rate : 25.000 fps
Color space : YUV
Chroma subsampling : 4:2:0
Bit depth : 8 bits
Scan type : Progressive
Bits/(Pixel*Frame) : 0.185
Stream size : 1.16 GiB (91%)
Writing library : DivX 6.2.5 (UTC 2006-07)

Audio
ID : 1
Format : MPEG Audio
Format version : Version 1
Format profile : Layer 3
Codec ID : 55
Codec ID/Hint : MP3
Duration : 2h 4mn
Bit rate mode : Constant
Bit rate : 128 Kbps
Channel(s) : 2 channels
Sampling rate : 44.1 KHz
Video delay : 26ms
Stream size : 114 MiB (9%)
Alignment : Split accross interleaves
Interleave, duration : 40 ms (1.00 video frame)
Interleave, preload duration : 500 ms
Writing library : LAME3.92
Obrázek

Kód: Vybrat vše

http://share-rapid.com/stahuj/2276886/james-bond-007-thunderball-1965-dvdrip-cz-part1.rar
http://share-rapid.com/stahuj/2277361/james-bond-007-thunderball-1965-dvdrip-cz-part2.rar
Bez hesla
Přidán záznam na opravu dat 5%
Uživatelský avatar
miki7811
Post man
Post man
Příspěvky: 6252
Registrován: 26 lis 2008 17:37
Dal poděkování: 1 poděkování
Dostal poděkování: 98 poděkování

James Bond / Complet Collection /

Příspěvek od miki7811 » 10 kvě 2011 19:39

V tajné službě Jejího veličenstva
On Her Majesty's Secret Service (1969)

Obrázek
AKTUÁLNĚ - 68%
Obrázek

Kód: Vybrat vše

http://www.csfd.cz/film/36337-v-tajne-sluzbe-jejiho-velicenstva/
Obsah:
Akční / Romantický / Dobrodružný / Thriller

Velká Británie / USA, 1969, 140 min
Režie: Peter R. Hunt
Hrají: George Lazenby, Diana Rigg, Telly Savalas, Gabriele Ferzetti, Lois Maxwell, George Baker, Bernard Lee, Desmond Llewelyn, Sally Sheridan, Joanna Lumley, Jenny Hanley, Bessie Love, Peter R. Hunt


Ernst Blofeld připravuje ve svém ústavu vysoko v Alpách ďábelský plán, který může být osudný pro celý svět. Podařilo se mu totiž vyvinout smrtelně nebezpečný virus a chce jej rozšířit po celé Zemi prostřednictvím mladých dívek, které již pro tento úkol shromáždil v nepřístupné laboratoři. Do Švýcarska se však vydává James Bond. Na Blofeldovu stopu se dostal díky Dracovi. Tento mafián má totiž oprávněné obavy o svoji dceru Tracy, a tak pro ni získá společnost agenta 007. Tracy samozřejmě kouzlu Jamese Bonda neodolá, ale ani agenta 007 tajné služby nečeká pouhý flirt.
Obrázek

Obrázek
General
Complete name : Z:\DVD UPLOAD\V tajné službě Jejího veličenstva (1969).avi
Format : AVI
Format/Info : Audio Video Interleave
File size : 1.26 GiB
Duration : 2h 16mn
Overall bit rate : 1 327 Kbps
Writing library : VirtualDub build 24469/release

Video
ID : 0
Format : MPEG-4 Visual
Format settings, BVOP : Yes
Format settings, QPel : No
Format settings, GMC : No warppoints
Format settings, Matrix : Default (H.263)
Muxing mode : Packed bitstream
Codec ID : DX50
Codec ID/Hint : DivX 5
Duration : 2h 16mn
Bit rate : 1 189 Kbps
Width : 720 pixels
Height : 400 pixels
Display aspect ratio : 16:9
Frame rate : 25.000 fps
Color space : YUV
Chroma subsampling : 4:2:0
Bit depth : 8 bits
Scan type : Progressive
Bits/(Pixel*Frame) : 0.165
Stream size : 1.13 GiB (90%)
Writing library : DivX 6.2.5 (UTC 2006-07)

Audio
ID : 1
Format : MPEG Audio
Format version : Version 1
Format profile : Layer 3
Codec ID : 55
Codec ID/Hint : MP3
Duration : 2h 16mn
Bit rate mode : Constant
Bit rate : 128 Kbps
Channel(s) : 2 channels
Sampling rate : 44.1 KHz
Video delay : 26ms
Stream size : 125 MiB (10%)
Alignment : Split accross interleaves
Interleave, duration : 40 ms (1.00 video frame)
Interleave, preload duration : 500 ms
Obrázek

Kód: Vybrat vše

http://share-rapid.com/stahuj/2277532/james-bond-007-v-tajne-sluzbe-jejiho-velicenstva-1969-dvdrip-cz-part1.rar
http://share-rapid.com/stahuj/2277857/james-bond-007-v-tajne-sluzbe-jejiho-velicenstva-1969-dvdrip-cz-part2.rar
Bez hesla
Přidán záznam na opravu dat 5%
Uživatelský avatar
miki7811
Post man
Post man
Příspěvky: 6252
Registrován: 26 lis 2008 17:37
Dal poděkování: 1 poděkování
Dostal poděkování: 98 poděkování

James Bond / Complet Collection /

Příspěvek od miki7811 » 10 kvě 2011 22:00

Dnes neumírej
Die Another Day (2002)

Obrázek
AKTUÁLNĚ - 68%
Obrázek

Kód: Vybrat vše

http://www.csfd.cz/film/11036-dnes-neumirej/
Obsah:
Akční / Thriller / Dobrodružný

Velká Británie / USA, 2002, 132 min
Režie: Lee Tamahori
Hrají: Pierce Brosnan, Halle Berry, Toby Stephens, Rosamund Pike, Rick Yune, John Cleese, Judi Dench, Michael Madsen, Will Yun Lee, Kenneth Tsang, Emilio Echevarría, Lawrence Makoare, Colin Salmon, Samantha Bond, Rachel Grant, Simón Andreu, Deborah Moore, Madonna


Agent 007 je zajat při tajné misi mezi Severní a Jižní Koreou. Britové mají korejského zajatce a nabídnou ho výměnou. Agent 007 se okamžitě přesune do Londýna. K šermířskému souboji ho vyzve bilionář Gustave Graves, který je téměř nepřekonatelný. Bondova mise pokračuje na Kubu, kde se seznámi s Jinx a zjistí, že v jejím dokonalém těle je i docela dokonalý mozek agentky CIA. James Bond se po peripetiích dostane do ledového paláce na Islandu, kde se nachází barvitá společnost. Je tu Graves, jeho pobočník Zaa, falešná panna a Gravesova asistentka Miranda. Ale hlavně je tu zbraň, která může zničit celý vesmír.
Obrázek

Obrázek
General
Complete name : Z:\DVD UPLOAD\Dnes neumírej (2002).avi
Format : AVI
Format/Info : Audio Video Interleave
File size : 1.34 GiB
Duration : 2h 7mn
Overall bit rate : 1 508 Kbps
Writing application : VirtualDubMod 1.5.10.1 (build 2366/release)
Writing library : VirtualDubMod build 2366/release

Video
ID : 0
Format : MPEG-4 Visual
Format settings, BVOP : Yes
Format settings, QPel : No
Format settings, GMC : No warppoints
Format settings, Matrix : Default (H.263)
Muxing mode : Packed bitstream
Codec ID : DX50
Codec ID/Hint : DivX 5
Duration : 2h 7mn
Bit rate : 1 050 Kbps
Width : 720 pixels
Height : 304 pixels
Display aspect ratio : 2.35:1
Frame rate : 25.000 fps
Color space : YUV
Chroma subsampling : 4:2:0
Bit depth : 8 bits
Scan type : Progressive
Bits/(Pixel*Frame) : 0.192
Stream size : 954 MiB (70%)
Writing library : DivX 6.2.5 (UTC 2006-07)

Audio
ID : 1
Format : AC-3
Format/Info : Audio Coding 3
Mode extension : CM (complete main)
Codec ID : 2000
Duration : 2h 7mn
Bit rate mode : Constant
Bit rate : 448 Kbps
Channel(s) : 6 channels
Channel positions : Front: L C R, Side: L R, LFE
Sampling rate : 48.0 KHz
Bit depth : 16 bits
Stream size : 407 MiB (30%)
Alignment : Split accross interleaves
Interleave, duration : 40 ms (1.00 video frame)
Interleave, preload duration : 500 ms
Obrázek

Kód: Vybrat vše

http://share-rapid.com/stahuj/2278471/james-bond-007-dnes-neumirej-2002-dvdrip-cz-5-1-part1.rar
http://share-rapid.com/stahuj/2278990/james-bond-007-dnes-neumirej-2002-dvdrip-cz-5-1-part2.rar
Bez hesla
Přidán záznam na opravu dat 5%
Uživatelský avatar
miki7811
Post man
Post man
Příspěvky: 6252
Registrován: 26 lis 2008 17:37
Dal poděkování: 1 poděkování
Dostal poděkování: 98 poděkování

James Bond / Complet Collection /

Příspěvek od miki7811 » 11 kvě 2011 10:17

Casino Royale (2006)
Obrázek
AKTUÁLNĚ - 81%
Obrázek

Kód: Vybrat vše

http://www.csfd.cz/film/208033-casino-royale/
Obsah:
Akční / Dobrodružný / Thriller

USA / Velká Británie / Česko / Německo, 2006, 144 min
Režie: Martin Campbell
Hrají: Daniel Craig, Eva Green, Mads Mikkelsen, Judi Dench, Jeffrey Wright, Giancarlo Giannini, Caterina Murino, Simon Abkarian, Isaach De Bankolé, Jesper Christensen, Ivana Milicevic, Tobias Menzies, Claudio Santamaria, Sebastien Foucan, Richard Sammel, Ludger Pistor, Lazar Ristovski, Miroslav Šimůnek, Vladimír Kulhavý, Martin Učík, Jürgen Tarrach, Gunther von Hagens, Vlastina Svátková, Regina Gabajová, Christina Cole, Ivan G'Vera, Michaela Ochotská, Carlos Leal


CASINO ROYALE pojednává o začátcích Bondovy špionážní kariéry. V rámci své první mise s pověřením "007" se má dostat na kobylku Le Chiffreovi (Mads Mikkelsen), který se stal bankéřem světového terorismu. Aby jej mohl zastavit a rozložit tak teroristickou síť, musí Bond Le Chiffrea porazit v pokerovém turnaji s astronomickými sázkami, který Le Chiffre pořádá v Casino Royale. Zprávu, že se s ním na misi vydává okouzlující účetní ministerstva financí Vesper Lynd (Eva Green), která má zajistit finanční prostředky na pokerové partie a poté na vládní peníze dohlížet, přijímá s krajní nevolí - avšak poté, co společně přežijí řadu smrtících útoků ze strany Le Chiffrea a jeho nohsledů, se mezi nimi vyvine vzájemná přitažlivost. Ta je nakonec zavede do ještě nebezpečnějších situací, které navždy změní Bondův život.
Obrázek

Obrázek
General
Complete name : Z:\DVD UPLOAD\Casino Royale (2006).avi
Format : AVI
Format/Info : Audio Video Interleave
File size : 1.36 GiB
Duration : 2h 17mn
Overall bit rate : 1 417 Kbps
Writing application : VirtualDubMod 1.5.10.2 (build 2540/release)
Writing library : VirtualDub build 24469/release

Video
ID : 0
Format : MPEG-4 Visual
Format profile : Advanced Simple@L5
Format settings, BVOP : Yes
Format settings, QPel : No
Format settings, GMC : No warppoints
Format settings, Matrix : Default (H.263)
Muxing mode : Packed bitstream
Codec ID : XVID
Codec ID/Hint : XviD
Duration : 2h 17mn
Bit rate : 1 279 Kbps
Width : 640 pixels
Height : 352 pixels
Display aspect ratio : 16:9
Frame rate : 25.000 fps
Color space : YUV
Chroma subsampling : 4:2:0
Bit depth : 8 bits
Scan type : Progressive
Bits/(Pixel*Frame) : 0.227
Stream size : 1.23 GiB (90%)
Writing library : XviD 1.2.0SMP (UTC 2006-01-08)

Audio
ID : 1
Format : MPEG Audio
Format version : Version 1
Format profile : Layer 3
Mode : Joint stereo
Mode extension : MS Stereo
Codec ID : 55
Codec ID/Hint : MP3
Duration : 2h 17mn
Bit rate mode : Constant
Bit rate : 128 Kbps
Channel(s) : 2 channels
Sampling rate : 48.0 KHz
Stream size : 126 MiB (9%)
Alignment : Aligned on interleaves
Interleave, duration : 40 ms (1.00 video frame)
Interleave, preload duration : 504 ms
Obrázek

Kód: Vybrat vše

http://share-rapid.com/stahuj/2279659/james-bond-007-casino-royale-2006-dvdrip-cz-part1.rar
http://share-rapid.com/stahuj/2279968/james-bond-007-casino-royale-2006-dvdrip-cz-part2.rar
Bez hesla
Přidán záznam na opravu dat 5%
Uživatelský avatar
miki7811
Post man
Post man
Příspěvky: 6252
Registrován: 26 lis 2008 17:37
Dal poděkování: 1 poděkování
Dostal poděkování: 98 poděkování

James Bond / Complet Collection /

Příspěvek od miki7811 » 12 kvě 2011 21:52

Diamanty jsou věčné
Diamonds Are Forever (1971)

Obrázek
AKTUÁLNĚ - 75%
Obrázek

Kód: Vybrat vše

http://www.csfd.cz/film/11533-diamanty-jsou-vecne/
Obsah:
Akční / Dobrodružný / Sci-Fi

Velká Británie / USA, 1971, 125 min
Režie: Guy Hamilton
Hrají: Sean Connery, Jill St. John, Bruce Cabot, Lois Maxwell, Norman Burton, Bruce Glover, Bernard Lee, Putter Smith, Desmond Llewelyn, Laurence Naismith, David Bauer, Joe Robinson, Ray Baker, Valerie Perrine, Sammy Davis Jr., Sid Haig, Charles Gray


Na trhu s diamanty vznikne podivná situace. Bondovi nezbývá než v Holandsku proniknout mezi pašeráky drahých kamenů a dostat se tak do blízkosti dvou mužů. Setkání s nimi však bylo doposud pro kohokoliv osudné. V Jihoafrické republice zabili zubaře, který kupoval kradené diamanty přímo od horníků, ale tím řetěz vražd nekončí. Také omráčený agent 007 se díky nim ocitne v rakvi. Zabijáci ho okamžitě pošlou v krematoriu do pece. Pro koho pracují?
Obrázek

Obrázek
General
Complete name : Z:\DVD UPLOAD\Diamanty jsou věčné (1971).avi
Format : AVI
Format/Info : Audio Video Interleave
File size : 695 MiB
Duration : 1h 55mn
Overall bit rate : 844 Kbps

Video
ID : 0
Format : MPEG-4 Visual
Format settings, BVOP : Yes
Format settings, QPel : No
Format settings, GMC : No warppoints
Format settings, Matrix : Default (H.263)
Muxing mode : Packed bitstream
Codec ID : DX50
Codec ID/Hint : DivX 5
Duration : 1h 55mn
Bit rate : 706 Kbps
Width : 720 pixels
Height : 400 pixels
Display aspect ratio : 16:9
Frame rate : 25.000 fps
Color space : YUV
Chroma subsampling : 4:2:0
Bit depth : 8 bits
Scan type : Progressive
Bits/(Pixel*Frame) : 0.098
Stream size : 581 MiB (84%)
Writing library : DivX 6.2.5 (UTC 2006-07)

Audio
ID : 1
Format : MPEG Audio
Format version : Version 1
Format profile : Layer 3
Codec ID : 55
Codec ID/Hint : MP3
Duration : 1h 55mn
Bit rate mode : Constant
Bit rate : 128 Kbps
Channel(s) : 2 channels
Sampling rate : 44.1 KHz
Video delay : 26ms
Stream size : 105 MiB (15%)
Alignment : Split accross interleaves
Interleave, duration : 40 ms (1.00 video frame)
Title : Audio Stream
Writing library : LAME3.92
Obrázek

Kód: Vybrat vše

http://share-rapid.com/stahuj/2280394/james-bond-007-diamanty-jsou-vecne-1971-dvdrip-cz.rar
Bez hesla
Přidán záznam na opravu dat 5%
Uživatelský avatar
miki7811
Post man
Post man
Příspěvky: 6252
Registrován: 26 lis 2008 17:37
Dal poděkování: 1 poděkování
Dostal poděkování: 98 poděkování

James Bond / Complet Collection /

Příspěvek od miki7811 » 12 kvě 2011 21:57

Žít a nechat zemřít
Live and Let Die (1973)

Obrázek
AKTUÁLNĚ - 75%
Obrázek

Kód: Vybrat vše

http://www.csfd.cz/film/14046-zit-a-nechat-zemrit/
Obsah:
Akční / Dobrodružný / Thriller

Velká Británie / USA, 1973, 121 min
Režie: Guy Hamilton
Hrají: Roger Moore, Yaphet Kotto, Jane Seymour, David Hedison, Bernard Lee, Lois Maxwell, Madeline Smith


Vražda v sídle OSN přivádí Bonda do USA. Stopy vedou do Orleansu, kde sídlí gang překupníků drog. Odtud se agent 007 vydává na tajemný ostrov San Monique v Karibském moři, ovládaný kultem Voodoo. Nebyl by první běloch, který by zde zemřel mysteriózní smrtí, jestliže se pokusí odhalit tajemství maskovaných plantáží, díky nimž může získat doktor Kananga tuny heroinu. Jakou roli v tomto případu sehraje Solitaire, žena, která dokáže předpovídat budoucnost z karet? Přivádí sice Jamese Bonda na stopu, ale zároveň její věštba znamená i ohrožení života. V tomto filmu se poprvé představil jako James Bond Roger Moore. Paul a Linda McCartneyovi získali za úvodní píseň nominaci na Oscara.
Obrázek

Obrázek
General
Complete name : Z:\DVD UPLOAD\Žít a nechat zemřít (1973).avi
Format : AVI
Format/Info : Audio Video Interleave
File size : 697 MiB
Duration : 1h 56mn
Overall bit rate : 836 Kbps

Video
ID : 0
Format : MPEG-4 Visual
Format settings, BVOP : Yes
Format settings, QPel : No
Format settings, GMC : No warppoints
Format settings, Matrix : Default (H.263)
Muxing mode : Packed bitstream
Codec ID : DX50
Codec ID/Hint : DivX 5
Duration : 1h 56mn
Bit rate : 699 Kbps
Width : 720 pixels
Height : 400 pixels
Display aspect ratio : 16:9
Frame rate : 25.000 fps
Color space : YUV
Chroma subsampling : 4:2:0
Bit depth : 8 bits
Scan type : Progressive
Bits/(Pixel*Frame) : 0.097
Stream size : 582 MiB (84%)
Writing library : DivX 6.2.5 (UTC 2006-07)

Audio
ID : 1
Format : MPEG Audio
Format version : Version 1
Format profile : Layer 3
Codec ID : 55
Codec ID/Hint : MP3
Duration : 1h 56mn
Bit rate mode : Constant
Bit rate : 128 Kbps
Channel(s) : 2 channels
Sampling rate : 44.1 KHz
Video delay : 26ms
Stream size : 107 MiB (15%)
Alignment : Split accross interleaves
Interleave, duration : 40 ms (1.00 video frame)
Title : Audio Stream
Writing library : LAME3.92
Obrázek

Kód: Vybrat vše

http://share-rapid.com/stahuj/2281046/james-bond-007-zit-a-nechat-zemrit-1973-dvdrip-cz.rar
Bez hesla
Přidán záznam na opravu dat 5%
Uživatelský avatar
miki7811
Post man
Post man
Příspěvky: 6252
Registrován: 26 lis 2008 17:37
Dal poděkování: 1 poděkování
Dostal poděkování: 98 poděkování

James Bond / Complet Collection /

Příspěvek od miki7811 » 12 kvě 2011 22:01

Muž se zlatou zbraní
Man with the Golden Gun, The (1974)

Obrázek
AKTUÁLNĚ - 74%
Obrázek

Kód: Vybrat vše

http://www.csfd.cz/film/14216-muz-se-zlatou-zbrani/
Obsah:
Akční / Dobrodružný / Drama / Thriller

Velká Británie / USA, 1974, 125 min
Režie: Guy Hamilton
Hrají: Roger Moore, Christopher Lee, Britt Ekland, Maud Adams, Sun - tek Oh, Bernard Lee, Lois Maxwell, Desmond Llewelyn, Qiu Yuen


Francisco Scaramanga si pro své oběti nechává dělat kulky ze zlata. Ze stejného kovu je i pistole, kterou vraždí. Ve svém sídle má bizardní labyrint ovládaný trpaslíkem. Žádný agent z něj ještě neodešel živý. Nyní v něm očekává Jamese Bonda. Scaramanga se však nemíní spokojit se zlatou pistolí, touží po daleko účinnější zbrani - Solexu, dělu na sluneční energii. Bond začíná pátrání v Bejrútu, ale další stopy ho zavedou do Macaa. Má mu pomáhat agentka Mary Goodnightová, ale ta po šílené honičce padne do rukou sadistického vraha.
Obrázek

Obrázek
General
Complete name : Z:\DVD UPLOAD\Muž se zlatou zbraní (1974).avi
Format : AVI
Format/Info : Audio Video Interleave
File size : 700 MiB
Duration : 1h 59mn
Overall bit rate : 816 Kbps

Video
ID : 0
Format : MPEG-4 Visual
Format settings, BVOP : Yes
Format settings, QPel : No
Format settings, GMC : No warppoints
Format settings, Matrix : Default (H.263)
Muxing mode : Packed bitstream
Codec ID : DX50
Codec ID/Hint : DivX 5
Duration : 1h 59mn
Bit rate : 710 Kbps
Width : 720 pixels
Height : 400 pixels
Display aspect ratio : 16:9
Frame rate : 25.000 fps
Color space : YUV
Chroma subsampling : 4:2:0
Bit depth : 8 bits
Scan type : Progressive
Bits/(Pixel*Frame) : 0.099
Stream size : 609 MiB (87%)
Writing library : DivX 6.2.5 (UTC 2006-07)

Audio
ID : 1
Format : MPEG Audio
Format version : Version 1
Format profile : Layer 3
Codec ID : 55
Codec ID/Hint : MP3
Duration : 1h 59mn
Bit rate mode : Constant
Bit rate : 96.0 Kbps
Channel(s) : 2 channels
Sampling rate : 44.1 KHz
Video delay : 26ms
Stream size : 82.4 MiB (12%)
Alignment : Split accross interleaves
Interleave, duration : 40 ms (1.00 video frame)
Title : Audio Stream
Writing library : LAME3.92
Obrázek

Kód: Vybrat vše

http://share-rapid.com/stahuj/2281833/james-bond-007-muz-se-zlatou-zbrani-1974-dvdrip-cz.rar
Bez hesla
Přidán záznam na opravu dat 5%
Uživatelský avatar
miki7811
Post man
Post man
Příspěvky: 6252
Registrován: 26 lis 2008 17:37
Dal poděkování: 1 poděkování
Dostal poděkování: 98 poděkování

James Bond / Complet Collection /

Příspěvek od miki7811 » 12 kvě 2011 22:05

Agent, který mne miloval
The Spy Who Loved Me (1977)

Obrázek
AKTUÁLNĚ - 79%
Obrázek

Kód: Vybrat vše

http://www.csfd.cz/film/30441-spion-ktery-me-miloval/
Obsah:
Akční / Sci-Fi / Thriller

Velká Británie / USA, 1977, 125 min (Director's cut: 123 min)
Režie: Lewis Gilbert
Hrají: Roger Moore, Barbara Bach, Curd Jürgens, Richard Kiel, Caroline Munro, Walter Gotell, Geoffrey Keen, Bernard Lee, George Baker, Desmond Llewelyn, Lois Maxwell, Nicholas Campbell, Garrick Hagon, Anthony Pullen Shaw, Bryan Marshall, Sean Bury, Kevin McNally, Olga Bisera


Dvě atomové ponorky zmizeli beze stopy a svědectví na mikrofilmu nasvědčuje, že jejich přísně utajené trasy byly narušeny tepelně naváděcím systémem. James Bond (Roger Moore), který dostal rozkaz aby se spojil se sovětskou agentkou Anjou Amasovou (Barbara Bach), se potýká s mocí posedlým Karlem Strombergem (Curt Jürgens). Ten má v úmyslu odpálit rakety na Moskvu a New York, aby mohl ovládnout svět z jeho nové říše Atlantis, situované pod hladinou oceánu. Ve snaze vyprovokovat III. světovou válku a celosvětovou destrukci Stromberg nasadí na agenta 007 svého nejvýkonnějšího kata - Čelisti (Richard Kiel). Jeho kovový chrup je smrtící zbraní schopnou prokousat se ocelí... i masem!
Obrázek

Obrázek
General
Complete name : Z:\DVD UPLOAD\Agent, který mne miloval (1977).avi
Format : AVI
Format/Info : Audio Video Interleave
File size : 705 MiB
Duration : 2h 0mn
Overall bit rate : 818 Kbps
Writing library : VirtualDub build 30016/release

Video
ID : 0
Format : MPEG-4 Visual
Format settings, BVOP : Yes
Format settings, QPel : No
Format settings, GMC : No warppoints
Format settings, Matrix : Default (H.263)
Muxing mode : Packed bitstream
Codec ID : DX50
Codec ID/Hint : DivX 5
Duration : 2h 0mn
Bit rate : 680 Kbps
Width : 720 pixels
Height : 304 pixels
Display aspect ratio : 2.35:1
Frame rate : 25.000 fps
Color space : YUV
Chroma subsampling : 4:2:0
Bit depth : 8 bits
Scan type : Progressive
Bits/(Pixel*Frame) : 0.124
Stream size : 586 MiB (83%)
Writing library : DivX 6.2.5 (UTC 2006-07)

Audio
ID : 1
Format : MPEG Audio
Format version : Version 1
Format profile : Layer 3
Mode : Joint stereo
Mode extension : MS Stereo
Codec ID : 55
Codec ID/Hint : MP3
Duration : 2h 0mn
Bit rate mode : Constant
Bit rate : 128 Kbps
Channel(s) : 2 channels
Sampling rate : 48.0 KHz
Stream size : 110 MiB (16%)
Alignment : Split accross interleaves
Interleave, duration : 40 ms (1.00 video frame)
Interleave, preload duration : 500 ms
Writing library : LAME3.97 (beta)
Obrázek

Kód: Vybrat vše

http://share-rapid.com/stahuj/2282385/james-bond-007-agent-ktery-mne-miloval-1977-dvdrip-cz.rar
Bez hesla
Přidán záznam na opravu dat 5%
Uživatelský avatar
miki7811
Post man
Post man
Příspěvky: 6252
Registrován: 26 lis 2008 17:37
Dal poděkování: 1 poděkování
Dostal poděkování: 98 poděkování

James Bond / Complet Collection /

Příspěvek od miki7811 » 12 kvě 2011 22:12

Dr. No (1962)
Obrázek
AKTUÁLNĚ - 80%
Obrázek

Kód: Vybrat vše

http://www.csfd.cz/film/11534-dr-no/
Obsah:
Akční / Thriller / Krimi

Velká Británie / USA, 1962, 110 min
Režie: Terence Young
Hrají: Sean Connery, Ursula Andress, Joseph Wiseman, Jack Lord, Bernard Lee, Anthony Dawson, John Kitzmiller, Lois Maxwell


Na Jamajce byl zavražděn agent britské tajné služby. Vyšetřování jeho násilné smrti přivádí Jamese Bonda stále blíž k záhadnému čínskému vědci Dr. No. Ten má přísně střeženou laboratoř v Crab Key. Agent 007 se neobejde bez agenta CIA Felixe Leitera, ale především musí uniknout vrahům, kteří se ho snaží nejrůznějším způsobem zbavit. Od Honey, půvabné lovkyně mušlí, se Bond dozví o záhadném drakovi. Během noci pak spolu zažijí útok tanku chrlícího oheň a stanou se zajatci muže, který se chystá ovládnout svět.
Obrázek

Obrázek
General
Complete name : Z:\DVD UPLOAD\Dr. No (1962).avi
Format : AVI
Format/Info : Audio Video Interleave
File size : 695 MiB
Duration : 1h 45mn
Overall bit rate : 924 Kbps
Writing library : VirtualDub build 13870/release

Video
ID : 0
Format : MPEG-4 Visual
Format settings, BVOP : Yes
Format settings, QPel : No
Format settings, GMC : No warppoints
Format settings, Matrix : Default (H.263)
Muxing mode : Packed bitstream
Codec ID : DX50
Codec ID/Hint : DivX 5
Duration : 1h 45mn
Bit rate : 786 Kbps
Width : 720 pixels
Height : 400 pixels
Display aspect ratio : 16:9
Frame rate : 25.000 fps
Color space : YUV
Chroma subsampling : 4:2:0
Bit depth : 8 bits
Scan type : Progressive
Bits/(Pixel*Frame) : 0.109
Stream size : 592 MiB (85%)
Writing library : DivX 6.2.5 (UTC 2006-07)

Audio
ID : 1
Format : MPEG Audio
Format version : Version 1
Format profile : Layer 3
Codec ID : 55
Codec ID/Hint : MP3
Duration : 1h 45mn
Bit rate mode : Constant
Bit rate : 128 Kbps
Channel(s) : 2 channels
Sampling rate : 44.1 KHz
Video delay : 26ms
Stream size : 96.3 MiB (14%)
Alignment : Split accross interleaves
Interleave, duration : 40 ms (1.00 video frame)
Interleave, preload duration : 500 ms
Writing library : LAME3.92
Obrázek

Kód: Vybrat vše

http://share-rapid.com/stahuj/2283402/james-bond-007-dr-no-1962-dvdrip-cz.rar
Bez hesla
Přidán záznam na opravu dat 5%
Uživatelský avatar
miki7811
Post man
Post man
Příspěvky: 6252
Registrován: 26 lis 2008 17:37
Dal poděkování: 1 poděkování
Dostal poděkování: 98 poděkování

James Bond / Complet Collection /

Příspěvek od miki7811 » 12 kvě 2011 22:15

Goldfinger (1964)
Obrázek
AKTUÁLNĚ - 85%
Obrázek

Kód: Vybrat vše

http://www.csfd.cz/film/11538-goldfinger/
Obsah:
Akční / Thriller / Dobrodružný

Velká Británie / USA, 1964, 112 min
Režie: Guy Hamilton
Hrají: Sean Connery, Gert Fröbe, Shirley Eaton, Harold Sakata, Bernard Lee, Martin Benson, Cec Linder, Lois Maxwell, Burt Kwouk, Desmond Llewelyn, Les Tremayne, Garry Marshall, Honor Blackman, Margaret Nolan


Málokterý zločinec na světě dokáže se zlatem to, čeho je schopen Auric Goldfinger. Zároveň nesnese, aby mu kdokoliv stál v cestě. James Bond mu sice překazí partičku karet, ale žena, kterou donutil aby mu pomohla, zemře. Také Agent 007 nemá při honičce s Goldfingerem šanci. Dostane se do rukou muže připravujícího útok na americkou základnu Fort Knox. Kupodivu zlato z pevnosti nechce ukrást, ale atomovým výbuchem jej na mnoho let znehodnotit. Zlato by totiž zůstalo šedesát let radioaktivní a nepoužitelné.
Obrázek

Obrázek
General
Complete name : Z:\DVD UPLOAD\Goldfinger (1964).avi
Format : AVI
Format/Info : Audio Video Interleave
File size : 696 MiB
Duration : 1h 45mn
Overall bit rate : 923 Kbps

Video
ID : 0
Format : MPEG-4 Visual
Format settings, BVOP : Yes
Format settings, QPel : No
Format settings, GMC : No warppoints
Format settings, Matrix : Default (H.263)
Muxing mode : Packed bitstream
Codec ID : DX50
Codec ID/Hint : DivX 5
Duration : 1h 45mn
Bit rate : 786 Kbps
Width : 720 pixels
Height : 400 pixels
Display aspect ratio : 16:9
Frame rate : 25.000 fps
Color space : YUV
Chroma subsampling : 4:2:0
Bit depth : 8 bits
Scan type : Progressive
Bits/(Pixel*Frame) : 0.109
Stream size : 593 MiB (85%)
Writing library : DivX 6.2.5 (UTC 2006-07)

Audio
ID : 1
Format : MPEG Audio
Format version : Version 1
Format profile : Layer 3
Codec ID : 55
Codec ID/Hint : MP3
Duration : 1h 45mn
Bit rate mode : Constant
Bit rate : 128 Kbps
Channel(s) : 2 channels
Sampling rate : 44.1 KHz
Video delay : 26ms
Stream size : 96.5 MiB (14%)
Alignment : Split accross interleaves
Interleave, duration : 40 ms (1.00 video frame)
Title : Audio Stream
Writing library : LAME3.92
Obrázek

Kód: Vybrat vše

http://share-rapid.com/stahuj/2284220/james-bond-007-goldfinger-1964-dvdrip-cz.rar
Bez hesla
Přidán záznam na opravu dat 5%
Uživatelský avatar
miki7811
Post man
Post man
Příspěvky: 6252
Registrován: 26 lis 2008 17:37
Dal poděkování: 1 poděkování
Dostal poděkování: 98 poděkování

James Bond / Complet Collection /

Příspěvek od miki7811 » 13 kvě 2011 15:34

Žiješ jenom dvakrát
You Only Live Twice (1967)

Obrázek
AKTUÁLNĚ - 80%
Obrázek

Kód: Vybrat vše

http://www.csfd.cz/film/11556-zijes-jenom-dvakrat/
Obsah:
Akční / Sci-Fi / Dobrodružný / Thriller

Velká Británie / USA, 1967, 117 min
Režie: Lewis Gilbert
Hrají: Sean Connery, Akiko Wakabayashi, Mie Hama, Karin Dor, Donald Pleasence, Bernard Lee, Lois Maxwell, Desmond Llewelyn, Burt Kwouk, Edward Mulhare, Alexander Knox, David Bauer, Vic Armstrong, William Sylvester, Robert Hutton, Charles Gray, Richard Marner


James Bond se tajně vydává do Japonska, protože Zemi hrozí 3. světová válka. Z oběžné dráhy kolem planety totiž zmizela americká družice i s posádkou a stejný osud potká i kosmonauty ze Sovětského svazu. Ohrožuje to křehké vztahy mezi supervelmocemi. Agentu 007 nezbývá, než rozkrýt tajemství obří sopky. Málokterá země však skrývá pro cizího agenta tolik nejrůznějších nebezpečí jako Japonsko. Bond tentokrát pomoc místní půvabné ženy opravdu potřebuje.
Obrázek

Obrázek
General
Complete name : Z:\DVD UPLOAD\Žiješ jenom dvakrát (1967).avi
Format : AVI
Format/Info : Audio Video Interleave
File size : 701 MiB
Duration : 1h 52mn
Overall bit rate : 874 Kbps

Video
ID : 0
Format : MPEG-4 Visual
Format settings, BVOP : Yes
Format settings, QPel : No
Format settings, GMC : No warppoints
Format settings, Matrix : Default (H.263)
Muxing mode : Packed bitstream
Codec ID : DX50
Codec ID/Hint : DivX 5
Duration : 1h 52mn
Bit rate : 737 Kbps
Width : 720 pixels
Height : 400 pixels
Display aspect ratio : 16:9
Frame rate : 25.000 fps
Color space : YUV
Chroma subsampling : 4:2:0
Bit depth : 8 bits
Scan type : Progressive
Bits/(Pixel*Frame) : 0.102
Stream size : 590 MiB (84%)
Writing library : DivX 6.2.5 (UTC 2006-07)

Audio
ID : 1
Format : MPEG Audio
Format version : Version 1
Format profile : Layer 3
Codec ID : 55
Codec ID/Hint : MP3
Duration : 1h 52mn
Bit rate mode : Constant
Bit rate : 128 Kbps
Channel(s) : 2 channels
Sampling rate : 44.1 KHz
Video delay : 26ms
Stream size : 103 MiB (15%)
Alignment : Split accross interleaves
Interleave, duration : 40 ms (1.00 video frame)
Title : Audio Stream
Writing library : LAME3.92
Obrázek

Kód: Vybrat vše

http://share-rapid.com/stahuj/2284998/james-bond-007-zijes-jenom-dvakrat-1967-dvdrip-cz.rar
Bez hesla
Přidán záznam na opravu dat 5%
Uživatelský avatar
miki7811
Post man
Post man
Příspěvky: 6252
Registrován: 26 lis 2008 17:37
Dal poděkování: 1 poděkování
Dostal poděkování: 98 poděkování

James Bond / Complet Collection /

Příspěvek od miki7811 » 13 kvě 2011 15:37

Srdečné pozdravy z Ruska
From Russia with Love (1963)

Obrázek
AKTUÁLNĚ - 81%
Obrázek

Kód: Vybrat vše

http://www.csfd.cz/film/11536-srdecne-pozdravy-z-ruska/
Obsah:
Thriller / Dobrodružný / Akční

Velká Británie / USA, 1963, 115 min
Režie: Terence Young
Hrají: Sean Connery, Daniela Bianchi, Pedro Armendáriz, Lotte Lenya, Robert Shaw, Bernard Lee, Walter Gotell, Francis De Wolff, Lois Maxwell, Vladek Sheybal, Desmond Llewelyn, Barbara Jefford, Anthony Dawson, Terence Young


Ernst Blofeld, hlava organizace SPECTRE, touží po smrti Jamese Bonda. Nastraží na něj past, o které je přesvědčen, že jí agent 007 podlehne. Využije služeb čísla Tři své organizace - Rosy Klebbové - vysoké důstojnice KGB. Ta vyšle do akce jako návnadu svou agentku Taťánu Romanovovou. Romanovová má přesvědčit MI6, že se zamilovala do Jamese Bonda a je připravena zběhnout i s cenným dešifrovacím zařízením, pokud pro ni její hrdina přijede do Istanbulu. Romanovová nemá ani potuchy, že je nástrojem v rukách SPECTRu, jenž chce vyvolat spor mezi Brity a Rusy, prodat zařízení se ziskem zpět Sovětům a vlákat Bonda do smrtící pasti.
Obrázek

Obrázek
General
Complete name : Z:\DVD UPLOAD\Srdečné pozdravy z Ruska (1963).avi
Format : AVI
Format/Info : Audio Video Interleave
File size : 702 MiB
Duration : 1h 50mn
Overall bit rate : 890 Kbps

Video
ID : 0
Format : MPEG-4 Visual
Format settings, BVOP : Yes
Format settings, QPel : No
Format settings, GMC : No warppoints
Format settings, Matrix : Default (H.263)
Muxing mode : Packed bitstream
Codec ID : DX50
Codec ID/Hint : DivX 5
Duration : 1h 50mn
Bit rate : 752 Kbps
Width : 720 pixels
Height : 400 pixels
Display aspect ratio : 16:9
Frame rate : 25.000 fps
Color space : YUV
Chroma subsampling : 4:2:0
Bit depth : 8 bits
Scan type : Progressive
Bits/(Pixel*Frame) : 0.104
Stream size : 593 MiB (85%)
Writing library : DivX 6.2.5 (UTC 2006-07)

Audio
ID : 1
Format : MPEG Audio
Format version : Version 1
Format profile : Layer 3
Codec ID : 55
Codec ID/Hint : MP3
Duration : 1h 50mn
Bit rate mode : Constant
Bit rate : 128 Kbps
Channel(s) : 2 channels
Sampling rate : 44.1 KHz
Video delay : 26ms
Stream size : 101 MiB (14%)
Alignment : Split accross interleaves
Interleave, duration : 40 ms (1.00 video frame)
Title : Audio Stream
Obrázek

Kód: Vybrat vše

http://share-rapid.com/stahuj/2285472/james-bond-007-srdecne-pozdravy-z-ruska-1963-dvdrip-cz.rar
Bez hesla
Přidán záznam na opravu dat 5%
Odpovědět

Zpět na „Filmové sbírky“